<?xml version="1.0" standalone="no"?>
<!DOCTYPE svg PUBLIC "-//W3C//DTD SVG 1.1//EN" "http://www.w3.org/Graphics/SVG/1.1/DTD/svg11.dtd" >
<svg xmlns="http://www.w3.org/2000/svg">
<metadata>Generated by IcoMoon</metadata>
<defs>
<font id="icomoon" horiz-adv-x="1024">
<font-face units-per-em="1024" ascent="960" descent="-64" />
<missing-glyph horiz-adv-x="1024" />
<glyph unicode="&#x20;" horiz-adv-x="512" d="" />
<glyph unicode="&#xe600;" glyph-name="cloudy-even-shower" d="M803.596 543.086c3.413 14.141 5.364 28.282 5.364 42.91 0 98.011-79.482 177.493-177.493 177.493-66.316 0-126.293-36.571-157.013-94.598-3.413 0-7.314 0.488-10.728 0.488-97.036 0-178.956-66.316-191.147-151.162-72.168-11.703-117.516-58.514-117.516-123.368 0-60.465 47.787-125.806 153.6-125.806h382.293c88.259 0 160.427 71.68 160.427 160.427 0 44.373-18.53 84.846-47.787 113.615zM631.467 721.067c74.118 0 134.583-60.465 134.583-134.583 0-4.876-0.488-9.752-0.975-14.629-0.975 0.488-1.463 0.488-2.438 0.975-1.463 0.975-3.413 1.463-4.876 2.438-0.975 0.488-1.95 0.975-2.438 0.975-2.438 0.975-4.389 1.95-6.827 2.926-0.488 0-0.975 0.488-0.975 0.488-5.851 2.438-11.703 3.901-18.042 5.851 0 0 0 0 0 0-2.926 0.488-5.851 1.463-8.777 1.95-0.488 0-0.975 0-1.463 0.488-2.438 0.488-4.876 0.975-7.314 0.975-0.488 0-1.463 0-1.95 0.488-2.438 0.488-4.876 0.488-7.314 0.488-0.975 0-1.463 0-2.438 0-2.926 0-6.339 0.488-9.265 0.488-4.876 0-9.752 0-14.629-0.488-0.975 0-2.438-0.488-3.413-0.488-1.463 0-2.438-0.488-3.901-0.488-0.488 0-1.463 0-1.95-0.488-1.95-0.488-3.413-0.488-5.364-0.975-0.975 0-1.95-0.488-3.413-0.488-1.463-0.488-2.438-0.488-3.901-0.975-1.95-0.488-3.901-0.975-5.364-1.463-0.488 0-0.975-0.488-1.463-0.488-2.438-0.488-4.389-1.463-6.827-1.95 0 0 0 0 0 0-2.438-0.975-4.876-1.463-6.827-2.438-0.975 1.463-1.95 2.926-2.926 4.389-0.488 0.975-1.463 2.438-1.95 3.413-1.463 1.95-2.926 4.389-4.389 6.339 0 0-0.488 0.488-0.488 0.488-24.869 32.67-60.952 56.564-103.375 68.267 23.893 35.596 65.341 58.514 110.69 58.514zM690.956 311.467h-382.293c-66.316 0-110.69 33.646-110.69 83.383 0 46.811 37.059 78.507 96.061 82.895 10.728 0.975 19.505 9.752 19.505 20.968 1.463 70.705 68.754 128.244 150.187 128.244 7.314 0 14.141-0.488 20.968-1.463 1.95-0.488 4.389-0.488 6.339-0.975 1.463-0.488 3.413-0.488 4.876-0.975s2.438-0.488 3.901-0.975 4.876-0.975 7.802-1.95c0.488 0 0.975-0.488 1.95-0.488 31.695-8.777 59.49-26.819 78.019-50.712 0-0.488 0.488-0.488 0.488-0.975 1.95-2.438 3.413-4.389 4.876-6.827 0.488-0.488 0.975-0.975 0.975-1.463 1.463-1.95 2.926-4.389 3.901-6.827 0.488-0.488 0.975-1.463 0.975-1.95 1.463-2.926 2.926-5.851 4.389-8.777 0 0 0 0 0 0 0.488-0.975 0.975-1.95 1.95-2.926 2.438-3.901 6.339-6.827 10.728-8.777 5.851-1.95 11.703-1.463 17.067 1.463 17.554 9.752 37.059 14.629 57.051 14.629 2.926 0 6.339 0 9.265-0.488 0.488 0 0.975 0 1.463 0 2.926-0.488 6.339-0.488 9.265-0.975 0.488 0 0.488 0 0.975 0 9.752-1.95 19.017-4.389 27.794-8.777 0.488 0 0.975-0.488 1.463-0.488 2.438-0.975 4.876-2.438 7.314-3.901 0.975-0.488 1.463-0.975 2.438-1.463 1.95-1.463 4.389-2.438 6.339-3.901 0.975-0.488 1.95-1.463 2.926-1.95 1.463-0.975 2.926-1.95 4.389-3.413 27.307-21.455 44.861-55.101 44.861-92.16 0.488-64.853-52.663-118.004-117.516-118.004zM267.703 234.91l-60.952-66.804c-7.802-8.777-7.314-21.943 1.463-30.232 3.901-3.901 9.265-5.364 14.141-5.364 5.851 0 11.703 2.438 15.604 6.827l60.952 66.804c7.802 8.777 7.314 21.943-1.463 30.232-8.29 7.802-21.943 7.314-29.745-1.463zM414.964 234.91l-60.952-66.804c-7.802-8.777-7.314-21.943 1.463-30.232 3.901-3.901 9.265-5.364 14.141-5.364 5.851 0 11.703 2.438 15.604 6.827l60.952 66.804c7.802 8.777 7.314 21.943-1.463 30.232-8.29 7.802-21.455 7.314-29.745-1.463zM562.712 234.91l-60.952-66.804c-7.802-8.777-7.314-21.943 1.463-30.232 3.901-3.901 9.265-5.364 14.141-5.364 5.851 0 11.703 2.438 15.604 6.827l60.952 66.804c7.802 8.777 7.314 21.943-1.463 30.232-8.29 7.802-21.943 7.314-29.745-1.463zM709.973 234.91l-60.952-66.804c-7.802-8.777-7.314-21.943 1.463-30.232 3.901-3.901 9.265-5.364 14.141-5.364 5.851 0 11.703 2.438 15.604 6.827l60.952 66.804c7.802 8.777 7.314 21.943-1.463 30.232-8.29 7.802-21.943 7.314-29.745-1.463z" />
<glyph unicode="&#xe601;" glyph-name="add-bold" d="M848.457 489.448h-295.010v295.010c0 22.918-18.53 41.448-41.448 41.448s-41.448-18.53-41.448-41.448v-295.010h-295.010c-22.918 0-41.448-18.53-41.448-41.448s18.53-41.448 41.448-41.448h295.010v-295.010c0-22.918 18.53-41.448 41.448-41.448s41.448 18.53 41.448 41.448v295.010h295.010c22.918 0 41.448 18.53 41.448 41.448s-18.53 41.448-41.448 41.448z" />
<glyph unicode="&#xe602;" glyph-name="eclipse" d="M499.322 694.248c-135.558 0-246.248-110.202-246.248-246.248 0-135.558 110.202-246.248 246.248-246.248 135.558 0 246.248 110.202 246.248 246.248-0.488 135.558-110.69 246.248-246.248 246.248zM625.615 288.549c-97.524 32.183-154.088 135.558-126.781 235.52 12.678 47.299 41.935 85.821 79.97 110.69 72.655-31.208 123.855-103.375 123.855-187.246 0-63.878-30.232-121.417-77.044-158.964zM889.417 469.455h-87.771c-11.703 0-21.455-9.752-21.455-21.455s9.752-21.455 21.455-21.455h87.771c11.703 0 21.455 9.752 21.455 21.455s-9.752 21.455-21.455 21.455zM728.015 249.051c-8.29 8.29-21.943 8.29-30.232 0s-8.29-21.943 0-30.232l62.415-62.415c4.389-4.389 9.752-6.339 15.116-6.339s10.728 1.95 15.116 6.339c8.29 8.29 8.29 21.943 0 30.232l-62.415 62.415zM712.899 640.61c5.364 0 10.728 1.95 15.116 6.339l61.928 61.928c8.29 8.29 8.29 21.943 0 30.232s-21.943 8.29-30.232 0l-62.415-62.415c-8.29-8.29-8.29-21.943 0-30.232 4.876-3.901 10.24-5.851 15.604-5.851z" />
<glyph unicode="&#xe603;" glyph-name="foggy-day" d="M832.853 466.53h-75.581c-9.265 127.269-116.053 227.718-245.272 227.718-98.499 0-183.345-58.027-222.842-141.897h-128.244c-11.703 0-21.455-9.752-21.455-21.455s9.752-21.455 21.455-21.455h113.128c-3.413-14.141-5.851-28.282-6.827-42.91h-66.804c-11.703 0-21.455-9.752-21.455-21.455s9.752-21.455 21.455-21.455h66.316c1.463-14.629 4.389-29.257 8.29-42.91h-114.103c-11.703 0-21.455-9.752-21.455-21.455s9.752-21.455 21.455-21.455h131.17c40.472-80.945 123.855-136.046 219.916-136.046 127.756 0 232.594 97.524 244.785 221.867h75.581c11.703 0 21.455 9.752 21.455 21.455s-9.265 21.455-20.968 21.455zM317.928 509.44h196.998c11.703 0 21.455 9.752 21.455 21.455s-9.752 21.455-21.455 21.455h-177.493c35.596 59.49 100.45 99.474 174.568 99.474 105.813 0 193.097-81.432 202.85-184.808h-405.699c1.463 14.141 4.389 28.77 8.777 42.423zM512 244.663c-71.68 0-135.070 37.547-171.154 93.623h294.522c11.703 0 21.455 9.752 21.455 21.455s-9.752 21.455-21.455 21.455h-315.49c-4.876 13.653-8.29 28.282-9.752 42.91h404.236c-12.19-100.937-98.499-179.444-202.362-179.444z" />
<glyph unicode="&#xe604;" glyph-name="foggy-night" d="M832.853 466.53h-306.225c0 15.604 1.463 31.695 5.851 47.787 13.166 49.25 47.299 89.722 93.623 111.177 7.314 3.413 12.19 10.728 12.19 19.017s-4.389 15.604-11.703 19.505c-34.621 18.042-73.63 27.307-113.128 27.307-82.895 0-159.939-41.448-206.263-110.202-6.339-9.265-11.703-18.53-16.091-28.282h-130.194c-11.703 0-21.455-9.752-21.455-21.455s9.752-21.455 21.455-21.455h114.103c-3.901-14.141-6.827-28.282-7.802-42.91h-66.804c-11.703 0-21.455-9.752-21.455-21.455s9.752-21.455 21.455-21.455h66.316c0.975-9.752 1.95-19.505 3.901-29.257 0.975-4.876 1.95-9.265 3.413-14.141h-113.128c-11.703 0-21.455-9.752-21.455-21.455s9.752-21.455 21.455-21.455h128.731c19.017-40.472 48.762-75.581 86.796-100.937 40.96-27.307 88.259-41.448 137.021-41.448 0 0 0 0 0 0 62.415 0 122.392 23.406 168.229 65.829 5.851 5.364 8.29 14.141 5.851 21.455-2.438 7.802-8.777 13.653-17.067 15.116-5.851 0.975-11.215 2.438-16.579 3.901-25.844 7.314-49.25 19.992-68.267 36.571h49.737c11.703 0 21.455 9.752 21.455 21.455s-9.752 21.455-21.455 21.455h-84.846c-7.802 13.653-14.141 27.794-18.042 42.91h300.373c11.703 0 21.455 9.752 21.455 21.455s-9.752 20.968-21.455 20.968zM342.796 557.227c38.034 57.051 101.912 91.185 170.667 91.185 18.53 0 37.547-2.438 55.589-7.802-30.232-22.918-54.126-53.15-68.754-88.259h-160.427c0.975 1.463 1.95 2.926 2.926 4.876zM319.39 509.44h168.229c-2.926-14.629-3.901-28.77-3.901-42.91h-174.080c1.95 14.629 4.876 29.257 9.752 42.91zM620.251 268.069c-31.695-19.505-68.754-29.745-106.789-29.745 0 0 0 0 0 0-40.472 0-79.482 11.703-113.615 34.621-25.844 17.067-46.811 39.497-62.415 65.341h190.171c23.406-30.72 54.613-55.101 92.648-70.217zM502.735 380.709h-184.32c-2.438 7.314-4.389 14.629-5.851 22.43-1.463 6.827-2.438 13.653-2.926 20.968h178.956c2.926-15.116 7.802-29.745 14.141-43.398z" />
<glyph unicode="&#xe605;" glyph-name="hail" d="M699.733 696.686c-19.992 0-39.497-3.901-58.027-10.728-33.646 55.589-97.524 90.21-169.204 90.21-97.036 0-178.956-66.316-191.147-151.162-71.68-11.215-117.516-58.027-117.516-122.88 0-74.118 62.903-125.806 153.6-125.806h382.293c88.259 0 160.427 71.68 160.427 160.427s-72.168 159.939-160.427 159.939zM699.733 418.743h-382.293c-66.316 0-110.69 33.646-110.69 83.383 0 46.811 37.059 78.507 96.061 82.895 10.728 0.975 19.505 9.752 19.505 20.968 1.463 70.705 68.754 128.244 150.187 128.244 61.928 0 118.004-33.646 140.434-84.358 2.438-5.364 6.827-9.752 12.678-11.703s11.703-1.463 17.067 1.463c17.554 9.752 37.059 14.629 57.051 14.629 64.853 0 117.516-52.663 117.516-117.516s-52.663-118.004-117.516-118.004zM539.794 359.253c-6.827 2.926-14.141 1.463-19.505-3.901l-62.415-60.465c-3.901-3.413-5.851-8.777-5.364-13.653l2.926-86.796c0-7.314 4.876-13.653 11.215-16.091 2.438-0.975 4.389-1.463 6.827-1.463 4.876 0 9.265 1.95 12.678 4.876l62.415 60.465c3.901 3.413 5.851 8.777 5.364 13.653l-2.926 86.796c0 7.314-4.389 13.653-11.215 16.579zM490.545 236.861l-1.463 37.547 27.307 26.331 1.463-37.547-27.307-26.331zM359.863 305.128c-6.827 2.926-14.141 1.463-19.505-3.901l-62.415-60.465c-3.901-3.413-5.851-8.777-5.364-13.653l2.926-86.796c0-7.314 4.876-13.653 11.215-16.091 2.438-0.975 4.389-1.463 6.827-1.463 4.876 0 9.265 1.95 12.678 4.876l62.415 60.465c3.901 3.413 5.851 8.777 5.364 13.653l-2.926 86.796c0 7.314-4.389 13.653-11.215 16.579zM310.126 182.735l-1.463 37.547 27.307 26.331 1.463-37.547-27.307-26.331zM686.080 305.128c-6.827 2.926-14.141 1.463-19.505-3.901l-62.415-60.465c-3.901-3.413-5.851-8.777-5.364-13.653l2.926-86.796c0-7.314 4.876-13.653 11.215-16.091 2.438-0.975 4.389-1.463 6.827-1.463 4.876 0 9.265 1.95 12.678 4.876l62.415 60.465c3.901 3.413 5.851 8.777 5.364 13.653l-2.926 86.796c-0.488 7.314-4.876 13.653-11.215 16.579zM636.343 182.735l-1.463 37.547 27.307 26.331 1.463-37.547-27.307-26.331z" />
<glyph unicode="&#xe606;" glyph-name="heavy-rain" d="M690.956 690.834c-19.992 0-39.497-3.901-58.027-10.728-33.646 55.589-97.524 90.21-169.204 90.21-97.036 0-178.956-66.316-191.147-151.162-72.168-11.703-117.516-58.514-117.516-123.368 0-74.118 62.903-125.806 153.6-125.806h382.293c88.259 0 160.427 71.68 160.427 160.427s-72.168 160.427-160.427 160.427zM690.956 412.891h-382.293c-66.316 0-110.69 33.646-110.69 83.383 0 46.811 37.059 78.507 96.061 82.895 10.728 0.975 19.505 9.752 19.505 20.968 1.463 70.705 68.754 128.244 150.187 128.244 61.928 0 118.004-33.646 140.434-84.358 2.438-5.364 6.827-9.752 12.678-11.703s11.703-1.463 17.067 1.463c17.554 9.752 37.059 14.629 57.051 14.629 64.853 0 117.516-52.663 117.516-117.516s-52.663-118.004-117.516-118.004zM267.703 336.335l-60.952-66.804c-7.802-8.777-7.314-21.943 1.463-30.232 3.901-3.901 9.265-5.364 14.141-5.364 5.851 0 11.703 2.438 15.604 6.827l60.952 66.804c7.802 8.777 7.314 21.943-1.463 30.232-8.29 7.802-21.943 7.314-29.745-1.463zM414.964 336.335l-60.952-66.804c-7.802-8.777-7.314-21.943 1.463-30.232 3.901-3.901 9.265-5.364 14.141-5.364 5.851 0 11.703 2.438 15.604 6.827l60.952 66.804c7.802 8.777 7.314 21.943-1.463 30.232-8.29 7.802-21.455 7.314-29.745-1.463zM562.712 336.335l-60.952-66.804c-7.802-8.777-7.314-21.943 1.463-30.232 3.901-3.901 9.265-5.364 14.141-5.364 5.851 0 11.703 2.438 15.604 6.827l60.952 66.804c7.802 8.777 7.314 21.943-1.463 30.232-8.29 7.802-21.943 7.314-29.745-1.463zM709.973 336.335l-60.952-66.804c-7.802-8.777-7.314-21.943 1.463-30.232 3.901-3.901 9.265-5.364 14.141-5.364 5.851 0 11.703 2.438 15.604 6.827l60.952 66.804c7.802 8.777 7.314 21.943-1.463 30.232-8.29 7.802-21.943 7.314-29.745-1.463zM267.703 228.084l-60.952-66.804c-7.802-8.777-7.314-21.943 1.463-30.232 3.901-3.901 9.265-5.364 14.141-5.364 5.851 0 11.703 2.438 15.604 6.827l61.44 66.804c7.802 8.777 7.314 21.943-1.463 30.232-8.777 7.802-22.43 7.314-30.232-1.463zM414.964 228.084l-60.952-66.804c-7.802-8.777-7.314-21.943 1.463-30.232 3.901-3.901 9.265-5.364 14.141-5.364 5.851 0 11.703 2.438 15.604 6.827l61.44 66.804c7.802 8.777 7.314 21.943-1.463 30.232-8.777 7.802-21.943 7.314-30.232-1.463zM562.712 228.084l-60.952-66.804c-7.802-8.777-7.314-21.943 1.463-30.232 3.901-3.901 9.265-5.364 14.141-5.364 5.851 0 11.703 2.438 15.604 6.827l60.952 66.804c7.802 8.777 7.314 21.943-1.463 30.232-8.29 7.802-21.943 7.314-29.745-1.463zM709.973 228.084l-60.952-66.804c-7.802-8.777-7.314-21.943 1.463-30.232 3.901-3.901 9.265-5.364 14.141-5.364 5.851 0 11.703 2.438 15.604 6.827l60.952 66.804c7.802 8.777 7.314 21.943-1.463 30.232-8.29 7.802-21.943 7.314-29.745-1.463z" />
<glyph unicode="&#xe607;" glyph-name="mostly-cloudy-day" d="M808.472 377.783c-0.488 3.413-0.975 6.339-1.95 9.752 30.72 29.745 49.737 68.754 53.15 111.665 0 1.463 0 3.413 0 4.876 2.926 50.712-15.604 99.962-51.688 136.046-18.042 18.042-39.497 31.695-63.39 40.96-0.975 0.488-2.438 1.463-3.901 1.95-18.53 6.339-38.034 9.752-58.027 9.752-22.43 0-44.373-4.389-65.341-12.678h-0.488c-0.975-0.488-1.463-0.488-2.438-0.975l-2.926-0.975c-20.48-8.777-39.010-21.455-55.101-37.547-4.876-4.876-9.752-10.728-14.141-16.091-15.604-0.488-31.208-3.413-45.836-8.777-29.745 48.274-86.796 78.507-150.187 78.507-86.309 0-158.964-58.514-171.154-133.608-62.903-11.215-103.863-54.126-103.863-111.177 0-66.804 56.564-113.615 137.996-113.615h88.747c-3.413-12.19-5.364-24.869-5.364-38.522 0-79.482 64.853-144.335 144.335-144.335h337.92c81.432 0 137.996 46.811 137.996 113.615-0.488 57.539-41.448 100.45-104.35 111.177zM629.029 638.659l4.389 1.95c28.77 11.215 60.465 12.678 90.21 3.413 0.975-0.488 1.95-0.975 3.413-1.463 19.505-6.827 36.571-17.554 51.2-32.183 28.282-28.282 42.423-67.291 39.010-107.276 0-1.463 0-2.926 0-4.389-2.926-24.869-12.678-47.787-28.282-67.291-21.455 35.109-57.051 61.44-99.962 73.63 0 0 0 0 0 0.488-0.488 2.926-0.975 5.364-1.463 8.29 0 0.975-0.488 1.95-0.975 2.926-0.488 1.95-0.975 3.413-1.463 5.364-0.488 0.975-0.488 1.95-0.975 2.926-0.975 2.438-1.463 4.389-2.438 6.827-0.488 1.463-0.975 2.926-1.95 4.389-0.488 0.975-0.975 1.95-0.975 2.926-2.438 5.851-5.364 11.215-8.777 16.091 0 0 0 0 0 0-15.116 24.381-37.059 43.886-62.903 56.076 0 0-0.488 0-0.488 0-1.95 0.975-3.901 1.463-5.851 2.438-0.488 0-0.488 0-0.975 0.488-1.95 0.975-3.901 1.463-5.851 1.95 10.24 9.265 22.43 16.579 35.109 22.43zM317.44 378.27h-108.251c-57.051 0-95.573 28.77-95.573 71.192 0 39.985 31.695 66.804 82.895 70.705 10.728 0.975 19.505 9.752 19.505 20.968 1.463 60.952 59.977 110.69 130.194 110.69 53.638 0 102.4-29.257 121.905-72.655 2.438-5.364 6.827-9.752 12.678-11.703s11.703-1.463 17.067 1.463c15.116 8.29 32.183 12.678 49.25 12.678 2.438 0 4.389 0 6.827-0.488 1.95 0 4.389-0.488 6.339-0.488 0.975 0 1.95 0 2.926-0.488 1.95-0.488 4.389-0.975 6.339-1.463s3.901-0.975 5.851-1.463c1.463-0.488 2.926-0.975 4.389-1.463 1.95-0.488 3.413-1.463 5.364-1.95 0.975-0.488 1.463-0.488 2.438-0.975 1.95-0.975 3.901-1.463 5.364-2.438 0.488-0.488 0.975-0.488 1.95-0.975 1.95-0.975 3.901-1.95 5.851-3.413 0.488-0.488 0.975-0.488 0.975-0.975 1.95-1.463 3.901-2.438 5.851-3.901 0 0 0.488 0 0.488-0.488 8.29-6.339 15.604-13.653 21.943-21.943 0 0 0 0 0 0 1.463-1.95 2.438-3.413 3.413-5.364 0.488-0.488 0.975-0.975 0.975-1.95 0.975-1.463 1.95-3.413 2.926-4.876 0.488-0.975 0.975-1.95 1.463-2.926 0.975-1.463 1.463-2.926 1.95-4.389 0.488-0.975 0.975-2.438 1.463-3.901s0.975-2.926 1.463-3.901c0-0.488 0-0.488 0.488-0.975-1.95 0-3.901 0-5.851 0-63.39 0-120.442-30.72-150.674-78.994-3.413 1.463-7.314 2.438-10.728 3.413-12.678 3.413-25.844 5.364-39.010 5.364 0 0-0.488 0-0.488 0-2.438 0-5.364 0-7.802-0.488-0.975 0-1.463 0-2.438 0-1.95 0-3.901-0.488-5.851-0.488-0.975 0-1.463 0-2.438-0.488-1.95-0.488-4.389-0.488-6.339-0.975-0.488 0-0.975 0-1.463-0.488-8.29-1.463-16.579-3.901-24.381-6.827-0.488 0-0.488-0.488-0.975-0.488-2.438-0.975-4.389-1.95-6.827-2.926-0.488 0-0.975-0.488-1.463-0.488-1.95-0.975-4.389-1.95-6.339-2.926-0.488 0-0.488-0.488-0.975-0.488-2.438-1.463-4.876-2.438-6.827-3.901-0.488-0.488-0.975-0.488-1.463-0.975-1.463-0.975-3.413-1.95-4.876-2.926-0.975-0.488-1.95-1.463-2.926-1.95-0.975-0.975-1.95-1.463-2.926-2.438s-2.438-1.95-3.413-2.926c-0.488-0.488-1.463-0.975-1.95-1.95-4.389-3.901-8.777-7.802-12.678-12.19-0.488-0.488-0.488-0.975-0.975-0.975-1.463-1.463-2.438-2.926-3.413-4.389-0.488-0.488-0.975-0.975-1.463-1.463-0.975-1.463-2.438-2.926-3.413-4.389-0.488-0.488-0.975-0.975-1.463-1.463-2.926 0-3.901-1.463-4.876-2.926zM774.339 195.901h-337.432c-56.076 0-101.425 45.349-101.425 101.425 0 20.968 6.339 40.472 17.067 56.564 0 0.488 0.488 0.488 0.488 0.975 1.463 2.438 3.413 4.389 4.876 6.827 0 0 0.488 0.488 0.488 0.488 1.95 2.438 3.901 4.876 6.339 6.827 0 0 0 0 0 0 1.95 1.95 4.389 3.901 6.339 5.851 0.488 0.488 0.975 0.488 0.975 0.975 2.438 1.95 4.876 3.901 7.314 5.364 0 0 0.488 0 0.488 0.488 1.95 1.463 4.389 2.926 6.827 3.901 0.975 0.488 1.463 0.975 2.438 1.463 2.438 0.975 4.389 2.438 6.827 3.413 0.488 0.488 1.463 0.488 1.95 0.975 1.95 0.975 4.389 1.463 6.827 2.438 0.975 0.488 1.95 0.488 2.926 0.975 2.438 0.488 4.876 1.463 7.314 1.95 0.488 0 1.463 0.488 1.95 0.488 2.438 0.488 5.364 0.975 8.29 1.463 0.975 0 1.463 0 2.438 0.488 2.926 0.488 5.851 0.488 9.265 0.488 0 0 0 0 0 0 10.728 0 21.455-1.95 31.695-4.876 5.851-1.95 12.19-4.389 17.554-7.802 5.364-2.926 11.215-3.413 17.067-1.463s10.24 6.339 12.678 11.703c19.017 43.398 68.267 72.655 121.905 72.655 2.438 0 4.389 0 6.827 0 0.488 0 0.975 0 1.463 0 1.95 0 3.413 0 5.364-0.488 0.975 0 1.463 0 2.438-0.488 1.463 0 2.926-0.488 4.389-0.488 0.975 0 2.438-0.488 3.413-0.488s1.95-0.488 2.926-0.488c1.463 0 2.438-0.488 3.901-0.975 0.975 0 1.95-0.488 2.926-0.488 41.935-9.752 75.581-37.547 89.722-73.143 0.488-0.975 0.488-1.463 0.975-2.438 3.901-10.24 5.851-20.48 5.851-31.695 0.488-10.728 8.777-19.992 19.505-20.968 51.2-3.901 82.895-30.72 82.895-70.705-0.488-42.423-39.010-71.192-96.061-71.192z" />
<glyph unicode="&#xe608;" glyph-name="mostly-cloudy-night" d="M774.339 377.783c-1.463 9.265-3.901 18.53-7.314 27.307 56.076 26.819 94.598 81.432 100.45 144.335 0.488 7.314-2.926 14.629-8.777 19.017-6.339 4.389-14.141 5.364-20.968 1.95-10.24-4.389-20.48-6.827-31.208-6.827-41.935 0-76.069 34.133-76.069 76.069 0 21.455 9.265 42.423 25.844 57.051 5.851 4.876 8.29 12.678 6.827 19.992s-6.827 13.653-14.141 16.091c-18.53 6.339-38.034 9.752-58.027 9.752-76.556 0-142.872-48.274-167.253-118.979-3.413 0.488-6.827 0.488-10.24 0.488-17.067 0-34.133-2.926-50.225-8.777-30.72 48.762-87.771 78.994-151.162 78.994-86.309 0-158.964-58.514-171.154-133.608-62.903-11.215-103.863-54.126-103.863-111.177 0-66.804 56.564-113.615 137.996-113.615h88.747c-3.413-12.19-5.364-24.869-5.364-38.522 0-79.482 64.853-144.335 144.335-144.335h337.92c81.432 0 137.996 46.811 137.996 113.615-0.488 57.539-41.448 100.45-104.35 111.177zM565.15 614.278c19.992 51.2 69.242 85.821 125.806 85.821 4.389 0 8.29 0 12.678-0.488-10.24-18.042-16.091-38.522-16.091-59.49 0-65.341 53.15-118.491 118.491-118.491 4.389 0 8.29 0 12.678 0.488-11.703-35.109-37.547-63.878-71.68-79.482-21.943 29.745-54.126 51.688-92.16 61.928-0.488 2.926-0.975 5.851-1.95 8.777 0 0.488 0 0.488 0 0.975-5.851 24.381-18.042 45.836-34.621 63.39 0 0 0 0-0.488 0.488-1.95 1.95-3.901 4.389-6.339 6.339 0 0 0 0 0 0-1.95 1.95-4.389 3.901-6.339 5.851-0.488 0.488-0.488 0.488-0.975 0.488-1.95 1.463-3.901 2.926-5.851 4.389-0.488 0.488-0.975 0.975-1.95 1.463-1.95 1.463-4.389 2.926-6.339 4.389-0.488 0-0.488 0.488-0.488 0.488-2.438 1.463-4.389 2.926-6.827 3.901-0.975 0.488-1.463 0.975-2.438 1.463-1.95 0.975-3.413 1.95-5.364 2.926-0.488 0.488-1.463 0.488-1.95 0.975-2.438 0.975-4.876 1.95-7.802 3.413 0 0 0 0 0 0zM283.307 378.27h-108.251c-57.051 0-95.573 28.77-95.573 71.192 0 39.985 31.695 66.804 82.895 70.705 10.728 0.975 19.505 9.752 19.505 20.968 1.463 60.952 59.977 110.69 130.194 110.69 53.638 0 102.4-29.257 121.905-72.655 2.438-5.364 6.827-9.752 12.678-11.703s11.703-1.463 17.067 1.463c15.116 8.29 32.183 12.678 49.25 12.678 7.802 0 15.116-0.975 22.43-2.438 1.463-0.488 3.413-0.975 4.876-1.463 0.975-0.488 1.95-0.488 3.413-0.975s2.926-0.975 4.389-1.463c0.975-0.488 2.438-0.975 3.413-1.463 1.463-0.488 2.438-0.975 3.901-1.463 0.975-0.488 2.438-0.975 3.413-1.463s2.438-1.463 3.413-1.95c0.975-0.488 2.438-1.463 3.413-1.95s2.438-1.463 3.413-2.438c0.975-0.488 1.95-1.463 2.926-1.95 1.463-0.975 2.438-1.95 3.901-2.926 0.975-0.488 1.463-1.463 2.438-1.95 1.463-1.463 3.413-2.926 4.876-4.389 0.488-0.488 0.488-0.488 0.975-0.975 11.215-11.215 19.992-24.869 24.869-40.472-1.95 0-3.901 0-5.851 0-15.604 0-31.208-1.95-45.836-5.364-44.373-10.728-81.92-37.059-104.35-73.63-4.389 1.463-8.777 2.926-13.166 4.389-12.19 2.926-24.381 4.876-37.059 4.876 0 0-0.488 0-0.488 0-2.438 0-5.364 0-7.802-0.488-0.975 0-1.463 0-2.438 0-1.95 0-3.901-0.488-5.851-0.488-0.975 0-1.463 0-2.438-0.488-1.95-0.488-4.389-0.488-6.339-0.975-0.488 0-0.975 0-1.463-0.488-8.29-1.463-16.579-3.901-24.381-6.827-0.488 0-0.488-0.488-0.975-0.488-2.438-0.975-4.389-1.95-6.339-2.926-0.488 0-0.975-0.488-1.463-0.488-1.95-0.975-4.389-1.95-6.339-2.926-0.488 0-0.975-0.488-1.463-0.488-2.438-1.463-4.876-2.438-6.827-3.901-0.488-0.488-1.463-0.975-1.95-1.463-1.463-0.975-2.926-1.95-4.389-2.926-0.975-0.975-1.95-1.463-3.413-2.438-0.975-0.488-1.95-1.463-2.926-1.95-0.975-0.975-2.438-1.95-3.413-2.926-0.488-0.488-1.463-0.975-1.95-1.463-4.389-3.901-8.777-7.802-13.166-12.19-0.488-0.488-0.488-0.488-0.975-0.975-1.463-1.463-2.438-2.926-3.901-4.389-0.488-0.488-0.975-0.975-1.463-1.463-0.975-1.463-2.438-2.926-3.413-4.389-0.488-0.488-0.975-0.975-0.975-1.463-0.975-1.95-1.95-3.413-2.926-4.876zM740.206 195.901h-337.432c-56.076 0-101.425 45.349-101.425 101.425 0 20.968 6.339 40.472 17.067 56.564 0 0.488 0.488 0.488 0.488 0.975 1.463 2.438 3.413 4.389 4.876 6.827 0 0 0.488 0.488 0.488 0.488 1.95 2.438 3.901 4.876 6.339 6.827 0 0 0 0 0 0 1.95 1.95 4.389 3.901 6.339 5.851 0.488 0.488 0.975 0.488 0.975 0.975 2.438 1.95 4.876 3.901 7.314 5.364 0 0 0.488 0 0.488 0.488 1.95 1.463 4.389 2.926 6.827 3.901 0.975 0.488 1.463 0.975 2.438 1.463 2.438 0.975 4.389 2.438 6.827 3.413 0.488 0.488 1.463 0.488 1.95 0.975 1.95 0.975 4.389 1.463 6.827 2.438 0.975 0.488 1.95 0.488 2.926 0.975 2.438 0.488 4.876 1.463 7.314 1.95 0.488 0 1.463 0.488 1.95 0.488 2.438 0.488 5.364 0.975 8.29 1.463 0.975 0 1.463 0 2.438 0.488 2.926 0.488 5.851 0.488 9.265 0.488 17.067 0 34.133-4.389 49.25-12.678 5.364-2.926 11.215-3.413 17.067-1.463s10.24 6.339 12.678 11.703c19.017 43.398 68.267 72.655 121.905 72.655 2.438 0 4.389 0 6.827 0 0.488 0 0.975 0 1.463 0 1.95 0 3.413 0 5.364-0.488 0.975 0 1.463 0 2.438-0.488 1.463 0 2.926-0.488 4.389-0.488 0.975 0 2.438-0.488 3.413-0.488s1.95-0.488 2.926-0.488c1.463-0.488 2.926-0.488 4.389-0.975 0.488 0 0.975 0 1.463-0.488 1.95-0.488 3.901-0.975 5.364-1.463 0 0 0 0 0 0 52.175-14.141 91.185-56.076 92.16-105.813 0.488-10.728 8.777-19.992 19.505-20.968 51.2-3.901 82.895-30.72 82.895-70.705-0.488-42.423-39.010-71.192-96.061-71.192z" />
<glyph unicode="&#xe609;" glyph-name="partly-cloudy-day" d="M812.373 499.2c3.413 14.141 5.364 28.282 5.364 42.91 0 98.011-79.482 177.493-177.493 177.493-66.316 0-126.293-36.571-157.013-94.598-3.413 0-7.314 0.488-10.728 0.488-97.036 0-178.956-66.316-191.147-151.162-72.168-11.703-117.516-58.514-117.516-123.368 0-74.118 62.903-125.806 153.6-125.806h382.293c88.259 0 160.427 71.68 160.427 160.427 0 44.373-18.53 84.846-47.787 113.615zM640.244 677.181c74.118 0 134.583-60.465 134.583-134.583 0-4.876-0.488-9.752-0.975-14.629-0.488 0.488-1.463 0.488-1.95 0.975-1.95 0.975-3.413 1.95-5.364 2.438-0.975 0.488-1.463 0.975-2.438 0.975-2.438 0.975-4.876 1.95-6.827 2.926-0.488 0-0.488 0.488-0.975 0.488-8.777 3.413-17.554 5.851-26.819 7.802-0.488 0-0.975 0-1.463 0.488-2.438 0.488-4.876 0.975-7.314 0.975-0.488 0-1.463 0-1.95 0.488-2.438 0.488-4.876 0.488-7.314 0.488-0.975 0-1.463 0-2.438 0-2.926 0-6.339 0.488-9.265 0.488-2.438 0-4.876 0-7.314 0-3.901 0-7.802-0.488-11.703-0.975-0.975 0-1.95 0-2.926-0.488-0.975 0-2.438-0.488-3.413-0.488-1.463 0-2.438-0.488-3.901-0.488-1.95-0.488-3.413-0.488-5.364-0.975-0.488 0-1.463-0.488-1.95-0.488-1.95-0.488-3.901-0.975-5.851-1.463-0.488 0-0.975 0-1.463-0.488-2.438-0.488-4.389-1.463-6.827-1.95 0 0 0 0 0 0-2.438-0.975-4.876-1.463-6.827-2.438-0.975 1.463-1.95 2.926-2.926 4.389-0.975 0.975-1.463 2.438-2.438 3.413-1.463 1.95-2.926 4.389-4.389 6.339 0 0-0.488 0.488-0.488 0.488-24.869 32.67-60.952 56.564-102.888 68.267 24.381 35.109 65.829 58.027 111.177 58.027zM699.733 267.581h-382.293c-66.316 0-110.69 33.646-110.69 83.383 0 46.811 37.059 78.507 96.061 82.895 10.728 0.975 19.505 9.752 19.505 20.968 1.463 70.705 68.754 128.244 150.187 128.244 7.314 0 14.141-0.488 20.968-1.463 1.95-0.488 4.389-0.488 6.339-0.975 1.463-0.488 3.413-0.488 4.876-0.975s2.438-0.488 3.901-0.975 4.876-0.975 7.802-1.95c0.488 0 0.975-0.488 1.95-0.488 31.695-8.777 59.49-26.819 78.507-50.712 0-0.488 0.488-0.488 0.488-0.975 1.95-2.438 3.413-4.389 4.876-6.827 0.488-0.488 0.488-0.975 0.975-1.463 1.463-2.438 2.926-4.389 3.901-6.827 0.488-0.488 0.975-1.463 0.975-1.95 1.463-2.926 2.926-5.851 4.389-8.777 1.95-3.901 4.876-7.314 8.777-9.752 1.463-0.975 2.438-1.463 3.901-1.95 3.413-0.975 6.827-1.463 10.24-0.488 2.438 0.488 4.389 0.975 6.827 2.438 17.554 9.752 37.059 14.629 57.051 14.629 2.926 0 6.339 0 9.265-0.488 0.488 0 0.975 0 1.463 0 2.926-0.488 6.339-0.488 9.265-0.975 0.488 0 0.488 0 0.975 0 9.752-1.95 19.017-4.389 27.794-8.777 0.488 0 0.975-0.488 1.463-0.488 2.438-0.975 4.876-2.438 7.314-3.901 0.975-0.488 1.463-0.975 2.438-1.463 1.95-1.463 4.389-2.438 6.339-3.901 0.975-0.488 1.95-1.463 2.926-1.95 1.463-0.975 2.926-1.95 4.389-3.413 27.307-21.455 44.861-55.101 44.861-92.16-0.488-65.341-53.15-118.491-118.004-118.491z" />
<glyph unicode="&#xe60a;" glyph-name="partly-cloudy-night" d="M873.326 573.806c0.488 7.314-2.926 14.629-8.777 19.017-6.339 4.389-14.141 5.364-20.968 1.95-10.24-4.389-20.48-6.827-31.208-6.827-41.935 0-76.069 34.133-76.069 76.069 0 21.455 9.265 42.423 25.844 57.051 5.851 4.876 8.29 12.678 6.827 19.992s-6.827 13.653-14.141 16.091c-18.53 6.339-38.034 9.752-58.027 9.752-86.309 0-158.476-60.952-174.080-143.848-59.49-7.802-111.665-40.472-140.434-88.259-18.53 7.314-38.034 10.728-58.027 10.728-88.259 0-160.427-71.68-160.427-160.427s71.68-160.427 160.427-160.427h382.293c90.21 0 153.6 51.688 153.6 125.806 0 41.448-20.48 76.069-55.101 98.499 38.522 30.232 63.878 75.093 68.267 124.83zM696.808 724.48c4.389 0 8.29 0 12.678-0.488-10.24-18.042-16.091-38.522-16.091-59.49 0-65.341 53.15-118.491 118.491-118.491 4.389 0 8.29 0 12.678 0.488-11.215-32.67-34.621-60.465-66.316-76.556-6.827 1.95-13.653 3.413-20.48 4.389-11.215 81.432-81.92 144.335-171.154 150.674 15.116 58.027 67.779 99.474 130.194 99.474zM706.56 267.581h-382.293c-64.853 0-117.516 52.663-117.516 117.516s52.663 117.516 117.516 117.516c19.992 0 39.497-4.876 57.051-14.629 5.364-2.926 11.215-3.413 17.067-1.463s10.24 6.339 12.678 11.703c21.943 50.225 78.507 84.358 140.434 84.358 79.97 0 143.36-56.076 145.31-128.244 0.488-10.728 8.777-19.992 19.505-20.968 60.465-4.389 100.937-37.547 100.937-82.895 0-49.25-44.373-82.895-110.69-82.895z" />
<glyph unicode="&#xe60b;" glyph-name="rainy" d="M690.956 636.709c-19.992 0-39.497-3.901-58.027-10.728-33.158 55.589-97.524 90.21-169.204 90.21-97.036 0-178.956-66.316-191.147-151.162-72.168-11.703-117.516-58.514-117.516-123.368 0-74.118 62.903-125.806 153.6-125.806h382.293c88.259 0 160.427 71.68 160.427 160.427s-72.168 160.427-160.427 160.427zM690.956 358.766h-382.293c-66.316 0-110.69 33.646-110.69 83.383 0 46.811 37.059 78.507 96.061 82.895 10.728 0.975 19.505 9.752 19.505 20.968 1.463 70.705 68.754 128.244 150.187 128.244 61.928 0 118.004-33.646 140.434-84.358 2.438-5.364 6.827-9.752 12.678-11.703s11.703-1.463 17.067 1.463c17.554 9.752 37.059 14.629 57.051 14.629 64.853 0 117.516-52.663 117.516-117.516s-52.663-118.004-117.516-118.004zM267.703 282.21l-60.952-66.804c-7.802-8.777-7.314-21.943 1.463-30.232 3.901-3.901 9.265-5.364 14.141-5.364 5.851 0 11.703 2.438 15.604 6.827l60.952 66.804c7.802 8.777 7.314 21.943-1.463 30.232-8.29 7.802-21.943 7.314-29.745-1.463zM414.964 282.21l-60.952-66.804c-7.802-8.777-7.314-21.943 1.463-30.232 3.901-3.901 9.265-5.364 14.141-5.364 5.851 0 11.703 2.438 15.604 6.827l60.952 66.804c7.802 8.777 7.314 21.943-1.463 30.232-8.29 7.802-21.455 7.314-29.745-1.463zM562.712 282.21l-60.952-66.804c-7.802-8.777-7.314-21.943 1.463-30.232 3.901-3.901 9.265-5.364 14.141-5.364 5.851 0 11.703 2.438 15.604 6.827l60.952 66.804c7.802 8.777 7.314 21.943-1.463 30.232-8.29 7.802-21.943 7.314-29.745-1.463zM709.973 282.21l-60.952-66.804c-7.802-8.777-7.314-21.943 1.463-30.232 3.901-3.901 9.265-5.364 14.141-5.364 5.851 0 11.703 2.438 15.604 6.827l60.952 66.804c7.802 8.777 7.314 21.943-1.463 30.232-8.29 7.802-21.943 7.314-29.745-1.463z" />
<glyph unicode="&#xe60c;" glyph-name="add" d="M848.457 469.455h-315.49v315.002c0 11.703-9.752 21.455-21.455 21.455s-21.455-9.752-21.455-21.455v-315.49h-314.514c-11.703 0-21.455-9.752-21.455-21.455s9.752-21.455 21.455-21.455h315.49v-314.514c0-11.703 9.752-21.455 21.455-21.455s21.455 9.752 21.455 21.455v315.49h314.514c11.703 0 21.455 9.752 21.455 21.455s-9.752 20.968-21.455 20.968z" />
<glyph unicode="&#xe60d;" glyph-name="slight-rain" d="M699.733 636.709c-19.992 0-39.497-3.901-58.027-10.728-33.646 55.589-97.524 90.21-169.204 90.21-97.036 0-178.956-66.316-191.147-151.162-72.168-11.703-117.516-58.514-117.516-123.368 0-74.118 62.903-125.806 153.6-125.806h382.293c88.259 0 160.427 71.68 160.427 160.427s-72.168 160.427-160.427 160.427zM699.733 358.766h-382.293c-66.316 0-110.69 33.646-110.69 83.383 0 46.811 37.059 78.507 96.061 82.895 10.728 0.975 19.505 9.752 19.505 20.968 1.463 70.705 68.754 128.244 150.187 128.244 61.928 0 118.004-33.646 140.434-84.358 2.438-5.364 6.827-9.752 12.678-11.703s11.703-1.463 17.067 1.463c17.554 9.752 37.059 14.629 57.051 14.629 64.853 0 117.516-52.663 117.516-117.516s-52.663-118.004-117.516-118.004zM360.35 279.284c-11.703 0-21.455-9.752-21.455-21.455v-70.705c0-11.703 9.752-21.455 21.455-21.455s21.455 9.752 21.455 21.455v70.705c0 12.19-9.752 21.455-21.455 21.455zM655.36 279.284c-11.703 0-21.455-9.752-21.455-21.455v-70.705c0-11.703 9.752-21.455 21.455-21.455s21.455 9.752 21.455 21.455v70.705c0 12.19-9.752 21.455-21.455 21.455zM508.099 279.284c-11.703 0-21.455-9.752-21.455-21.455v-70.705c0-11.703 9.752-21.455 21.455-21.455s21.455 9.752 21.455 21.455v70.705c-0.488 12.19-9.752 21.455-21.455 21.455z" />
<glyph unicode="&#xe60e;" glyph-name="snow" d="M699.733 685.47c-19.992 0-39.497-3.901-58.027-10.728-33.646 55.589-97.524 90.21-169.204 90.21-97.036 0-178.956-66.316-191.147-151.162-72.168-11.703-117.516-58.514-117.516-123.368 0-74.118 62.903-125.806 153.6-125.806h382.293c88.259 0 160.427 71.68 160.427 160.427s-72.168 160.427-160.427 160.427zM699.733 407.528h-382.293c-66.316 0-110.69 33.646-110.69 83.383 0 46.811 37.059 78.507 96.061 82.895 10.728 0.975 19.505 9.752 19.505 20.968 1.463 70.705 68.754 128.244 150.187 128.244 61.928 0 118.004-33.646 140.434-84.358 2.438-5.364 6.827-9.752 12.678-11.703s11.703-1.463 17.067 1.463c17.554 9.752 37.059 14.629 57.051 14.629 64.853 0 117.516-52.663 117.516-117.516s-52.663-118.004-117.516-118.004zM645.12 268.069c-4.876 8.777-16.091 11.703-24.869 6.827l-11.703-6.827-6.827 11.703c-4.876 8.777-16.091 11.703-24.869 6.827s-11.703-16.091-6.827-24.869l6.827-11.703-46.324-26.819v53.638h13.653c10.24 0 18.53 8.29 18.53 18.53s-8.29 18.53-18.53 18.53h-13.653v13.653c0 10.24-8.29 18.53-18.53 18.53s-18.53-8.29-18.53-18.53v-13.653h-13.653c-10.24 0-18.53-8.29-18.53-18.53s8.29-18.53 18.53-18.53h13.653v-53.638l-46.324 26.819 6.827 11.703c4.876 8.777 1.95 19.992-6.827 24.869s-19.992 1.95-24.869-6.827l-6.827-11.703-11.703 6.827c-8.777 4.876-19.992 1.95-24.869-6.827s-1.95-19.992 6.827-24.869l11.703-6.827-6.827-11.703c-4.876-8.777-1.95-19.992 6.827-24.869 2.926-1.463 5.851-2.438 9.265-2.438 6.339 0 12.678 3.413 16.091 9.265l6.827 11.703 46.324-26.819-46.324-26.819-6.827 11.703c-4.876 8.777-16.091 11.703-24.869 6.827s-11.703-16.091-6.827-24.869l6.827-11.703-11.703-6.827c-8.777-4.876-11.703-16.091-6.827-24.869 3.413-5.851 9.752-9.265 16.091-9.265 2.926 0 6.339 0.975 9.265 2.438l11.703 6.827 6.827-11.703c3.413-5.851 9.752-9.265 16.091-9.265 2.926 0 6.339 0.975 9.265 2.438 8.777 4.876 11.703 16.091 6.827 24.869l-6.827 11.703 46.324 26.819v-53.638h-13.653c-10.24 0-18.53-8.29-18.53-18.53s8.29-18.53 18.53-18.53h13.653v-13.653c0-10.24 8.29-18.53 18.53-18.53s18.53 8.29 18.53 18.53v13.653h13.653c10.24 0 18.53 8.29 18.53 18.53s-8.29 18.53-18.53 18.53h-13.653v53.638l46.324-26.819-6.827-11.703c-4.876-8.777-1.95-19.992 6.827-24.869 2.926-1.463 5.851-2.438 9.265-2.438 6.339 0 12.678 3.413 16.091 9.265l6.827 11.703 11.703-6.827c2.926-1.463 5.851-2.438 9.265-2.438 6.339 0 12.678 3.413 16.091 9.265 4.876 8.777 1.95 19.992-6.827 24.869l-11.703 6.827 6.827 11.703c4.876 8.777 1.95 19.992-6.827 24.869s-19.992 1.95-24.869-6.827l-6.827-11.703-46.324 26.819 46.324 26.819 6.827-11.703c3.413-5.851 9.752-9.265 16.091-9.265 2.926 0 6.339 0.975 9.265 2.438 8.777 4.876 11.703 16.091 6.827 24.869l-6.827 11.703 11.703 6.827c5.851 4.876 8.777 16.091 3.901 24.869z" />
<glyph unicode="&#xe60f;" glyph-name="arrow-down-bold" d="M512 163.718c-11.215 0-21.943 4.876-30.232 12.678l-393.509 413.013c-15.604 16.579-15.116 42.91 1.463 58.514s42.91 15.116 58.514-1.463l363.276-381.318 363.276 381.318c15.604 16.579 41.935 17.067 58.514 1.463s17.067-41.935 1.463-58.514l-393.509-413.013c-7.314-7.802-18.042-12.678-29.257-12.678z" />
<glyph unicode="&#xe610;" glyph-name="thunder-shower" d="M690.956 685.47c-19.992 0-39.497-3.901-58.027-10.728-33.158 55.589-97.524 90.21-169.204 90.21-97.036 0-178.956-66.316-191.147-151.162-72.168-11.703-117.516-58.514-117.516-123.368 0-74.118 62.903-125.806 153.6-125.806h382.293c88.259 0 160.427 71.68 160.427 160.427s-72.168 160.427-160.427 160.427zM592.945 329.021c-8.777 7.802-21.943 7.314-30.232-1.463l-100.937-110.202c-5.851-6.339-7.314-15.116-3.901-22.918s11.215-12.678 19.505-12.678h49.25l-68.267-74.606c-7.802-8.777-7.314-21.943 1.463-30.232 3.901-3.901 9.265-5.364 14.141-5.364 5.851 0 11.703 2.438 15.604 6.827l100.937 110.202c5.851 6.339 7.314 15.116 3.901 22.918s-11.215 12.678-19.505 12.678h-49.25l68.267 74.606c8.29 8.777 7.314 22.43-0.975 30.232zM267.703 327.558l-60.952-66.804c-7.802-8.777-7.314-21.943 1.463-30.232 3.901-3.901 9.265-5.364 14.141-5.364 5.851 0 11.703 2.438 15.604 6.827l60.952 66.804c7.802 8.777 7.314 21.943-1.463 30.232-8.29 7.802-21.943 7.314-29.745-1.463zM414.964 327.558l-60.952-66.804c-7.802-8.777-7.314-21.943 1.463-30.232 3.901-3.901 9.265-5.364 14.141-5.364 5.851 0 11.703 2.438 15.604 6.827l60.952 66.804c7.802 8.777 7.314 21.943-1.463 30.232-8.29 7.802-21.455 7.314-29.745-1.463zM709.973 327.558l-60.952-66.804c-7.802-8.777-7.314-21.943 1.463-30.232 3.901-3.901 9.265-5.364 14.141-5.364 5.851 0 11.703 2.438 15.604 6.827l60.952 66.804c7.802 8.777 7.314 21.943-1.463 30.232-8.29 7.802-21.943 7.314-29.745-1.463z" />
<glyph unicode="&#xe611;" glyph-name="arrow-down" d="M512 184.198c-5.851 0-11.215 2.438-15.604 6.827l-393.509 412.526c-8.29 8.29-7.802 21.943 0.488 30.232s21.943 7.802 30.232-0.488l377.905-396.434 377.905 396.434c8.29 8.29 21.455 8.777 30.232 0.488s8.777-21.455 0.488-30.232l-393.509-413.013c-3.413-3.901-8.777-6.339-14.629-6.339z" />
<glyph unicode="&#xe612;" glyph-name="thunder" d="M690.956 685.47c-19.992 0-39.497-3.901-58.027-10.728-33.158 55.589-97.524 90.21-169.204 90.21-97.036 0-178.956-66.316-191.147-151.162-72.168-11.703-117.516-58.514-117.516-123.368 0-74.118 62.903-125.806 153.6-125.806h382.293c88.259 0 160.427 71.68 160.427 160.427s-72.168 160.427-160.427 160.427zM546.133 328.533c-8.29 8.29-21.943 8.29-30.232 0l-100.937-100.45c-6.339-5.851-7.802-15.116-4.876-23.406s11.215-13.166 19.505-13.166h45.836l-64.366-63.878c-8.29-8.29-8.29-21.943 0-30.232 4.389-4.389 9.752-6.339 15.116-6.339s10.728 1.95 15.116 6.339l100.937 100.45c6.339 5.851 7.802 15.116 4.876 23.406s-11.215 13.166-19.505 13.166h-45.836l64.366 63.878c8.29 8.29 8.29 21.943 0 30.232z" />
<glyph unicode="&#xe613;" glyph-name="arrow-left-bold" d="M665.112 13.044c-10.24 0-20.48 3.901-28.77 11.215l-413.013 393.509c-8.29 7.802-12.678 18.53-12.678 30.232s4.876 21.943 12.678 30.232l413.013 393.509c16.579 15.604 42.91 15.116 58.514-1.463s15.116-42.91-1.463-58.514l-380.83-363.764 381.318-363.276c16.579-15.604 17.067-41.935 1.463-58.514-8.29-8.777-19.017-13.166-30.232-13.166z" />
<glyph unicode="&#xe614;" glyph-name="arrow-left" d="M665.112 33.036c-5.364 0-10.728 1.95-14.629 5.851l-413.013 393.509c-4.389 3.901-6.827 9.752-6.827 15.604s2.438 11.215 6.827 15.604l413.013 393.509c8.29 8.29 21.943 7.802 30.232-0.488s7.802-21.943-0.488-30.232l-396.922-378.392 396.434-377.905c8.29-8.29 8.777-21.455 0.488-30.232-3.901-4.389-9.265-6.827-15.116-6.827z" />
<glyph unicode="&#xe615;" glyph-name="tornado" d="M647.558 374.37c-10.728 0-19.992-8.29-20.968-18.53-7.802-8.29-47.787-22.918-114.59-22.918s-106.789 14.629-114.59 22.918c-1.463 10.24-10.24 18.53-20.968 18.53-11.703 0-21.455-9.752-21.455-21.455 0-28.77 40.96-62.415 157.013-62.415s157.013 33.646 157.013 62.415c0 11.703-9.752 21.455-21.455 21.455zM512 709.364c-119.467 0-321.829-19.505-321.829-93.623s202.362-93.623 321.829-93.623 321.829 19.505 321.829 93.623-202.362 93.623-321.829 93.623zM385.219 585.021c16.091 8.777 60.465 19.992 126.781 19.992s110.69-11.215 126.781-19.992c-16.091-8.777-60.465-19.992-126.781-19.992s-110.69 11.215-126.781 19.992zM686.080 578.682c0.488 1.95 0.488 3.901 0.488 6.339 0 21.943-20.48 39.010-60.465 49.737-30.72 8.29-71.192 12.678-114.103 12.678s-83.383-4.389-114.103-12.678c-40.472-10.728-60.465-27.794-60.465-49.737 0-1.95 0.488-4.389 0.488-6.339-62.415 11.215-99.474 26.331-105.326 37.059 10.24 18.53 111.665 50.712 278.918 50.712s269.166-32.67 278.918-50.712c-5.364-10.728-41.935-25.844-104.35-37.059zM771.413 511.878c-11.703 0-21.455-9.265-21.455-21.455-2.438-14.141-79.482-51.2-237.958-51.2s-235.52 37.059-237.958 50.712c0 11.703-9.752 21.455-21.455 21.455s-21.455-9.752-21.455-21.455c0-64.366 145.31-93.623 280.869-93.623s280.869 29.257 280.869 93.623c0 12.19-9.752 21.943-21.455 21.943zM592.457 247.589c-10.24 5.851-23.406 2.438-29.257-7.802l-51.688-87.771-51.688 87.771c-5.851 10.24-19.017 13.653-29.257 7.802s-13.653-19.017-7.802-29.257l69.73-118.979c0.488-0.488 0.488-0.975 0.975-1.463 0 0 0.488-0.488 0.488-0.488 0.975-0.975 1.463-1.95 2.438-2.926 0 0 0.488-0.488 0.488-0.488 0.975-0.975 1.95-1.463 2.926-1.95 0 0 0 0 0.488 0 0 0 0 0 0 0 0.488-0.488 0.975-0.488 1.463-0.975 0.488 0 0.488-0.488 0.975-0.488s0.975-0.488 1.463-0.488c0.488 0 0.975-0.488 1.463-0.488s0.488 0 0.975 0 1.463-0.488 1.95-0.488c0 0 0 0 0 0 0.975 0 1.95 0 2.438 0 0 0 0 0 0 0s0 0 0 0c0.975 0 1.95 0 2.438 0 0 0 0 0 0 0 0.488 0 1.463 0 1.95 0.488 0.488 0 0.488 0 0.975 0s0.975 0.488 1.463 0.488c0.488 0 0.975 0.488 1.463 0.488s0.488 0.488 0.975 0.488 0.975 0.488 1.463 0.975c0 0 0 0 0 0s0 0 0.488 0c0.975 0.488 1.95 1.463 2.926 1.95 0 0 0.488 0.488 0.488 0.488 0.975 0.975 1.463 1.95 2.438 2.926 0 0 0.488 0.488 0.488 0.488 0.488 0.488 0.488 0.975 0.975 1.463l69.73 118.979c6.827 10.24 3.413 23.406-6.827 29.257z" />
<glyph unicode="&#xe616;" glyph-name="arrow-right-bold" d="M345.722 13.044c-10.728 0-21.943 4.389-30.232 12.678-15.604 16.579-15.116 42.91 1.463 58.514l381.318 363.276-380.83 363.764c-16.579 15.604-17.067 41.935-1.463 58.514s41.935 17.067 58.514 1.463l413.013-393.509c8.29-7.802 12.678-18.53 12.678-30.232s-4.876-21.943-12.678-30.232l-413.013-393.509c-7.802-6.827-18.53-10.728-28.77-10.728z" />
<glyph unicode="&#xe617;" glyph-name="windy" d="M601.234 350.476h-329.63c-11.703 0-21.455-9.752-21.455-21.455s9.752-21.455 21.455-21.455h329.63c37.059 0 67.291-30.232 67.291-67.291s-30.232-67.291-67.291-67.291c-25.844 0-49.737 15.116-60.952 38.522-4.876 10.728-17.554 15.116-28.282 10.24s-15.116-17.554-10.24-28.282c18.042-38.522 57.051-62.903 99.474-62.903 60.465 0 109.714 49.25 109.714 109.714s-49.25 110.202-109.714 110.202zM760.686 650.85c-74.606 0-135.070-60.465-135.070-135.070 0-11.703 9.752-21.455 21.455-21.455s21.455 9.752 21.455 21.455c0 51.2 41.448 92.648 92.648 92.648s92.648-41.448 92.648-92.648-41.448-92.648-92.648-92.648h-621.714c-11.703 0-21.455-9.752-21.455-21.455s9.752-21.455 21.455-21.455h621.227c74.606 0 135.070 60.465 135.070 135.070s-60.465 135.558-135.070 135.558zM220.404 457.752h288.183c40.472 0 73.143 32.67 73.143 73.143s-32.67 73.143-73.143 73.143c-27.794 0-52.663-15.116-65.341-39.985-5.364-10.24-0.975-23.406 9.265-28.77s23.406-0.975 28.77 9.265c5.364 10.24 15.604 16.579 27.307 16.579 17.067 0 30.72-13.653 30.72-30.72s-13.653-30.72-30.72-30.72h-288.183c-11.703 0-21.455-9.752-21.455-21.455s9.752-20.48 21.455-20.48z" />
<glyph unicode="&#xe618;" glyph-name="arrow-right" d="M345.722 33.036c-5.851 0-11.215 2.438-15.604 6.827-8.29 8.29-7.802 21.943 0.488 30.232l396.434 377.905-395.947 377.905c-8.29 8.29-8.777 21.455-0.488 30.232 8.29 8.29 21.455 8.777 30.232 0.488l413.013-393.509c4.389-3.901 6.827-9.752 6.827-15.604s-2.438-11.215-6.827-15.604l-413.013-393.509c-4.389-3.413-9.752-5.364-15.116-5.364z" />
<glyph unicode="&#xe619;" glyph-name="google" d="M412.628 523.435c0 44.115-11.279 88.581-33.841 133.427-10.576 21.499-24.498 39-41.774 52.487-17.632 12.761-37.898 19.505-60.821 20.231-30.325-0.731-55.535-12.941-75.625-36.635-16.95-24.795-25.059-52.497-24.322-83.11 0-40.463 11.835-82.578 35.518-126.318 11.464-20.417 26.263-37.732 44.393-51.941 18.125-14.219 38.844-21.324 62.157-21.324 29.447 1.092 53.989 11.664 73.626 31.724 9.465 14.209 15.55 28.784 18.256 43.735 1.614 14.941 2.433 27.511 2.433 37.722zM354.606 230.229c-7.124 0.727-15.492 1.092-25.103 1.092-5.71 0.727-20.314 0-43.817-2.185-23.162-3.272-46.846-8.543-71.061-15.828-5.705-2.175-13.717-5.452-24.044-9.83-10.333-4.72-20.836-11.464-31.525-20.187-6.846-6.022-12.917-13.107-18.359-21.055v-30.257c0-28.526 23.181-51.707 51.707-51.707h281.839c0.015 0.683 0.054 1.356 0.054 2.048 0 28.379-9.27 53.126-27.785 74.22-19.602 20.022-50.225 44.573-91.906 73.689zM140.698 225.577c27.351 12.532 55.681 21.367 85.002 26.444 39.497 5.812 72.294 9.070 98.397 9.806-8.065 10.606-15.253 21.943-21.563 34.021-7.373 11.698-11.045 25.785-11.045 42.252 0 9.869 1.395 18.11 4.203 24.693 2.453 6.949 4.735 13.332 6.836 19.193-12.712-1.463-24.693-2.189-35.947-2.189-53.336 0.653-95.276 15.789-125.884 45.334v-199.553zM831.595 815.728h-639.195c-28.526 0-51.707-23.177-51.707-51.707v-69.388c3.262 3.477 6.617 6.934 10.157 10.357 31.798 26.19 64.848 43.281 99.133 51.288 33.938 6.905 65.746 10.367 95.437 10.367h223.734l-69.1-40.331h-68.983c7.022-4.364 14.931-10.737 23.708-19.105 8.431-8.728 16.686-19.461 24.771-32.188 7.724-12.010 14.57-26.2 20.553-42.564 4.905-16.369 7.373-35.469 7.373-57.295-0.668-40.024-9.499-72.036-26.497-96.051-8.343-11.639-17.174-22.372-26.507-32.188-10.333-9.826-21.333-19.831-32.997-30.013-6.671-6.919-12.834-14.736-18.495-23.464-6.666-9.104-10.006-19.651-10.006-31.651 0-11.654 3.423-21.285 10.26-28.921 5.808-7.285 11.459-13.648 16.93-19.105l37.951-31.105c23.581-19.285 44.266-40.555 62.050-63.844 16.755-23.65 25.473-54.569 26.156-92.765 0-15.789-2.097-31.042-6.159-45.783h291.43c28.526 0 51.707 23.181 51.707 51.707v632.042c0.005 28.531-23.177 51.707-51.702 51.707zM872.277 587.605h-117.385v-117.399h-56.876v117.399h-117.385v56.866h117.385v117.394h56.876v-117.394h117.385v-56.866z" />
<glyph unicode="&#xe61a;" glyph-name="arrow-up-bold" d="M905.509 223.208c-10.728 0-21.943 4.389-30.232 12.678l-363.276 381.318-363.276-381.318c-15.604-16.579-41.935-17.067-58.514-1.463s-17.067 41.935-1.463 58.514l393.509 413.013c7.802 8.29 18.53 12.678 30.232 12.678s21.943-4.876 30.232-12.678l393.509-413.013c15.604-16.579 15.116-42.91-1.463-58.514-8.777-7.802-19.017-11.215-29.257-11.215z" />
<glyph unicode="&#xe61b;" glyph-name="arrow-up" d="M905.509 243.2c-5.851 0-11.215 2.438-15.604 6.827l-377.905 396.434-377.905-396.434c-8.29-8.29-21.455-8.777-30.232-0.488-8.29 8.29-8.777 21.455-0.488 30.232l393.021 412.038c3.901 4.389 9.752 6.827 15.604 6.827s11.215-2.438 15.604-6.827l393.509-413.013c8.29-8.29 7.802-21.943-0.488-30.232-4.389-3.413-9.752-5.364-15.116-5.364z" />
<glyph unicode="&#xe61c;" glyph-name="pinterest" d="M510.259 818.376c-204.951 0-371.112-166.151-371.112-371.107 0-151.962 91.375-282.507 222.135-339.905-1.044 25.912-0.19 57.017 6.461 85.216 7.134 30.13 47.748 202.22 47.748 202.22s-11.859 23.693-11.859 58.719c0 54.994 31.881 96.066 71.573 96.066 33.753 0 50.059-25.351 50.059-55.715 0-33.933-21.641-84.69-32.773-131.701-9.299-39.361 19.739-71.47 58.578-71.47 70.315 0 117.667 90.307 117.667 197.305 0 81.335-54.779 142.214-154.414 142.214-112.572 0-182.706-83.948-182.706-177.723 0-32.329 9.533-55.135 24.469-72.787 6.866-8.109 7.821-11.371 5.335-20.685-1.78-6.827-5.871-23.264-7.563-29.779-2.472-9.401-10.084-12.756-18.583-9.284-51.849 21.168-76 77.946-76 141.775 0 105.418 88.908 231.824 265.231 231.824 141.692 0 234.94-102.527 234.94-212.587 0-145.584-80.935-254.342-200.236-254.342-40.068 0-77.751 21.655-90.663 46.256 0 0-21.543-85.504-26.107-102.015-7.865-28.613-23.264-57.207-37.352-79.501 33.378-9.855 68.637-15.219 105.175-15.219 204.932 0 371.093 166.151 371.093 371.117 0 204.951-166.161 371.107-371.093 371.107z" />
<glyph unicode="&#xe61d;" glyph-name="account-solid" d="M512.020 404.236c89.971 0 163.172 80.243 163.172 178.873v44.139c0 98.631-73.201 178.868-163.172 178.868-89.99 0-163.201-80.243-163.201-178.868v-44.144c0-98.626 73.211-178.868 163.201-178.868zM895.181 114.527l-22.752 142.204c-0.098 0.551-0.2 1.097-0.332 1.634-7.027 29.121-24.771 50.347-59.304 70.973-0.332 0.205-0.688 0.4-1.039 0.58l-135.344 70.914c-7.924 4.159-17.618 2.901-24.24-3.14-28.18-25.761-75.381-56.471-140.171-56.471-64.8 0-111.991 30.705-140.171 56.466-6.607 6.046-16.316 7.305-24.24 3.145l-135.344-70.914c-0.351-0.185-0.707-0.375-1.039-0.58-34.533-20.626-52.268-41.852-59.304-70.973-0.122-0.541-0.239-1.087-0.322-1.634l-22.762-142.204c-0.98-6.154 0.78-12.429 4.827-17.174 4.037-4.745 9.962-7.475 16.189-7.475h724.324c6.227 0 12.151 2.736 16.189 7.475 4.052 4.745 5.812 11.025 4.832 17.174z" />
<glyph unicode="&#xe61e;" glyph-name="cancel-bold" d="M570.514 448l208.701 208.701c16.091 16.091 16.091 42.423 0 58.514s-42.423 16.091-58.514 0l-208.701-208.701-208.701 208.701c-16.091 16.091-42.423 16.091-58.514 0s-16.091-42.423 0-58.514l208.701-208.701-208.701-208.701c-16.091-16.091-16.091-42.423 0-58.514 8.29-8.29 18.53-12.19 29.257-12.19s21.455 3.901 29.257 12.19l208.701 208.701 208.701-208.701c8.29-8.29 18.53-12.19 29.257-12.19s21.455 3.901 29.257 12.19c16.091 16.091 16.091 42.423 0 58.514l-208.701 208.701z" />
<glyph unicode="&#xe61f;" glyph-name="cancel" d="M542.232 448l222.842 222.842c8.29 8.29 8.29 21.943 0 30.232s-21.943 8.29-30.232 0l-222.842-222.842-222.842 222.842c-8.29 8.29-21.943 8.29-30.232 0s-8.29-21.943 0-30.232l222.842-222.842-222.842-222.842c-8.29-8.29-8.29-21.943 0-30.232 4.389-4.389 9.752-6.339 15.116-6.339s10.728 1.95 15.116 6.339l222.842 222.842 222.842-222.842c4.389-4.389 9.752-6.339 15.116-6.339s10.728 1.95 15.116 6.339c8.29 8.29 8.29 21.943 0 30.232l-222.842 222.842z" />
<glyph unicode="&#xe620;" glyph-name="account" d="M512.015 404.236c89.975 0 163.177 80.243 163.177 178.868v44.144c0 98.631-73.201 178.873-163.177 178.873-89.99 0-163.201-80.243-163.201-178.873v-44.144c0-98.631 73.211-178.868 163.201-178.868zM391.387 627.244c0 75.162 54.116 136.304 120.627 136.304 66.501 0 120.603-61.147 120.603-136.304v-44.144c0-75.157-54.106-136.299-120.603-136.299-66.516 0-120.627 61.143-120.627 136.299v44.144zM895.181 114.527l-22.752 142.204c-0.093 0.551-0.2 1.097-0.327 1.634-7.031 29.116-24.766 50.342-59.299 70.973-0.341 0.205-0.692 0.4-1.044 0.58l-135.344 70.914c-7.929 4.164-17.623 2.906-24.235-3.14-28.189-25.761-75.391-56.471-140.186-56.471-64.79 0-111.982 30.705-140.161 56.466-6.607 6.046-16.311 7.305-24.24 3.145l-135.348-70.914c-0.351-0.185-0.702-0.375-1.039-0.58-34.538-20.631-52.273-41.857-59.299-70.978-0.127-0.536-0.239-1.083-0.327-1.629l-22.762-142.204c-0.98-6.154 0.78-12.429 4.823-17.174s9.962-7.475 16.194-7.475h724.324c6.232 0 12.151 2.736 16.194 7.475 4.047 4.74 5.808 11.020 4.827 17.174zM174.802 132.452l18.676 116.677c3.579 14.117 11.8 26.99 39.068 43.369l121.978 63.907c45.675-37.347 101.059-57.749 157.477-57.749 56.422 0 111.806 20.407 157.496 57.749l121.973-63.907c27.268-16.384 35.489-29.257 39.073-43.374l18.666-116.677h-674.406z" />
<glyph unicode="&#xe621;" glyph-name="minus-bold" d="M848.457 406.552h-672.914c-22.918 0-41.448 18.53-41.448 41.448s18.53 41.448 41.448 41.448h672.914c22.918 0 41.448-18.53 41.448-41.448s-18.53-41.448-41.448-41.448z" />
<glyph unicode="&#xe622;" glyph-name="airplane-front-solid" d="M570.802 356.932l337.501-54.994-0.024 91.492-331.522 136.348c0.078 9.986 0.171 19.914 0.151 29.711 0.005 237.119-29.067 317.854-64.902 317.879-35.879 0.005-64.956-80.755-64.931-317.879-0.010-9.796 0.063-19.714 0.171-29.676l-331.552-136.368 0.005-91.482 337.486 54.95c4.286-73.435 10.581-143.657 18.349-200.977l-133.627-75.459 0.010-61.83 153.376 34.304 41.413-0.015 153.395-34.299 0.020 61.845-133.652 75.464c7.763 57.32 14.073 127.522 18.334 200.987z" />
<glyph unicode="&#xe623;" glyph-name="airplane" d="M905.669 644.871l-59.816 59.782c-6.237 6.242-15.682 7.973-23.732 4.374l-310.452-138.874c-3.56 3.608-7.109 7.188-10.645 10.708-221.106 221.106-281.478 211.924-307.663 185.773-0.005-0.005 0 0 0 0-32.612-32.612 5.14-92.262 17.549-111.87 31.603-49.947 88.201-115.824 168.19-195.799 3.535-3.545 7.109-7.095 10.708-10.645l-138.869-310.467c-3.604-8.055-1.863-17.506 4.379-23.747l61.24-61.24c4.423-4.418 10.567-6.676 16.794-6.164 6.222 0.512 11.908 3.735 15.56 8.821l182.511 254.742c10.021-9.045 19.997-18.13 29.759-27.024 34.631-31.539 67.54-61.513 97.919-85.655l-30.988-127.586c-1.755-7.212 0.385-14.824 5.637-20.075l43.725-43.71c4.647-4.647 11.186-6.885 17.71-6.066 6.515 0.819 12.298 4.608 15.648 10.26l79.38 133.851 25.507 25.493 133.871 79.404c1.541 0.917 2.945 2.009 4.189 3.252 3.311 3.311 5.466 7.656 6.066 12.395 0.814 6.519-1.414 13.058-6.056 17.701l-43.72 43.749c-5.252 5.252-12.863 7.392-20.085 5.632l-127.605-31.003c-24.215 30.476-54.306 63.503-85.962 98.255-8.792 9.655-17.774 19.515-26.722 29.433l254.781 182.482c0.946 0.683 1.838 1.434 2.653 2.248 0.029 0.024 0.054 0.049 0.073 0.073 8.314 8.314 8.314 21.787 0.005 30.096-0.497 0.497-1.014 0.961-1.536 1.399zM605.594 449.356c-4.92-3.516-8.094-8.953-8.767-14.946-0.668-5.998 1.243-12 5.257-16.511 14.214-15.965 28.779-31.954 42.857-47.411 34.87-38.283 67.799-74.43 92.15-106.418 5.13-6.724 13.746-9.787 21.962-7.792l129.346 31.427 15.901-15.911-112.606-66.789c-1.526-0.907-2.935-1.999-4.184-3.252l-29.296-29.267c0 0-0.005-0.005-0.010-0.010-1.253-1.253-2.35-2.662-3.257-4.194l-66.775-112.586-15.892 15.882 31.412 129.331c1.994 8.216-1.063 16.833-7.792 21.957-31.89 24.279-67.93 57.11-106.086 91.853-15.565 14.18-31.671 28.843-47.748 43.154-4.506 4.008-10.503 5.92-16.506 5.247-5.993-0.673-11.43-3.852-14.941-8.758l-181.721-253.645-33.134 33.134 138.937 310.589c3.638 8.133 1.829 17.671-4.54 23.903-7.061 6.91-14.068 13.814-20.943 20.709-203.561 203.513-185.958 247.15-185.822 247.433 0.385 0.234 44.12 17.691 247.559-185.754 5.964-5.944 11.942-12.015 17.949-18.12l2.809-2.848c6.237-6.329 15.745-8.124 23.864-4.491l310.555 138.928 33.148-33.134-253.689-181.711z" />
<glyph unicode="&#xe624;" glyph-name="minus" d="M848.457 426.545h-672.914c-11.703 0-21.455 9.752-21.455 21.455s9.752 21.455 21.455 21.455h672.914c11.703 0 21.455-9.752 21.455-21.455s-9.752-21.455-21.455-21.455z" />
<glyph unicode="&#xe625;" glyph-name="arrow-right-circle" d="M512.005 867.781c-231.473 0-419.791-188.314-419.791-419.781s188.318-419.781 419.791-419.781c231.468 0 419.781 188.314 419.781 419.781s-188.314 419.781-419.781 419.781zM512.005 70.793c-207.999 0-377.217 169.214-377.217 377.207s169.218 377.207 377.217 377.207c207.994 0 377.207-169.214 377.207-377.207s-169.214-377.207-377.207-377.207zM463.799 660.163c-8.509 8.109-21.982 7.787-30.091-0.717-8.109-8.509-7.787-21.982 0.722-30.091l190.245-181.355-190.249-181.35c-8.509-8.109-8.831-21.582-0.722-30.091 4.184-4.389 9.791-6.602 15.409-6.602 5.276 0 10.562 1.95 14.682 5.881l206.414 196.759c4.213 4.013 6.602 9.582 6.602 15.404s-2.384 11.391-6.602 15.404l-206.409 196.759z" />
<glyph unicode="&#xe626;" glyph-name="arrow-left-circle" d="M512.005 867.781c-231.473 0-419.791-188.314-419.791-419.781s188.318-419.781 419.791-419.781c231.468 0 419.781 188.314 419.781 419.781s-188.314 419.781-419.781 419.781zM512.005 70.793c-207.999 0-377.217 169.214-377.217 377.207s169.218 377.207 377.217 377.207c207.994 0 377.207-169.214 377.207-377.207s-169.214-377.207-377.207-377.207zM577.38 659.441c-8.114 8.514-21.582 8.836-30.091 0.717l-206.414-196.759c-4.213-4.013-6.602-9.582-6.602-15.404s2.384-11.391 6.602-15.404l206.414-196.759c4.12-3.93 9.406-5.881 14.682-5.881 5.617 0 11.225 2.214 15.409 6.602 8.109 8.509 7.787 21.982-0.722 30.091l-190.249 181.355 190.249 181.35c8.509 8.109 8.831 21.582 0.722 30.091z" />
<glyph unicode="&#xe627;" glyph-name="bin" d="M846.824 705.707h-207.999v93.101c0 11.756-9.528 21.285-21.285 21.285h-204.483c-11.756 0-21.285-9.533-21.285-21.285v-93.101h-214.596c-11.756 0-21.285-9.533-21.285-21.285s9.528-21.285 21.285-21.285h85.002l34.962-567.252c0.692-11.225 9.996-19.978 21.241-19.978h387.228c11.249 0 20.553 8.748 21.241 19.978l34.972 567.252h84.992c11.756 0 21.285 9.533 21.285 21.285s-9.518 21.285-21.275 21.285zM434.342 777.523h161.909v-71.817h-161.909v71.817zM685.602 118.477h-347.204l-33.573 544.656h414.359l-33.582-544.656zM457.923 591.399c-11.756 0-21.285-9.533-21.285-21.285v-333.736c0-11.756 9.528-21.285 21.285-21.285s21.285 9.533 21.285 21.285v333.736c0 11.756-9.528 21.285-21.285 21.285zM566.072 591.399c-11.756 0-21.285-9.533-21.285-21.285v-333.736c0-11.756 9.528-21.285 21.285-21.285s21.285 9.533 21.285 21.285v333.736c0 11.756-9.528 21.285-21.285 21.285z" />
<glyph unicode="&#xe628;" glyph-name="calender-2" d="M699.572 717.77c11.756 0 21.285 9.528 21.285 21.285v107.422c0 11.756-9.533 21.285-21.285 21.285s-21.285-9.528-21.285-21.285v-107.418c0-11.761 9.528-21.289 21.285-21.289zM338.544 717.77c11.756 0 21.285 9.528 21.285 21.285v107.422c0 11.756-9.533 21.285-21.285 21.285s-21.285-9.528-21.285-21.285v-107.418c-0.005-11.761 9.528-21.289 21.285-21.289zM888.442 699.475h-738.777c-11.756 0-21.285-9.528-21.285-21.285v-573.333c0-11.756 9.533-21.285 21.285-21.285h738.777c11.756 0 21.285 9.528 21.285 21.285v573.333c0 11.756-9.528 21.285-21.285 21.285zM867.157 656.906v-92.56h-696.203v92.56h696.203zM170.954 126.142v395.63h696.203v-395.63h-696.203zM434.586 467.87h-27.307l-56.179-47.206c-1.56-1.56-2.341-3.901-1.95-7.017l2.341-19.115c0.39-3.516 4.291-5.856 7.802-5.076l34.333 7.417v-186.86c0-3.896 3.121-7.412 7.412-7.412h33.548c3.901 0 7.022 3.516 7.022 7.412v250.446c0 3.901-3.121 7.412-7.022 7.412zM691.268 394.142c0 42.13-31.208 77.629-86.991 77.629-46.426 0-76.854-38.229-76.854-38.229-2.731-3.126-1.946-7.802 0.39-10.142l18.725-18.725c3.121-3.126 7.412-3.126 10.533 0 8.972 9.752 24.966 23.016 43.691 23.016 28.087 0 41.35-17.949 41.35-35.499 0-13.268-7.802-28.477-19.895-43.305-26.136-34.714-75.288-98.694-101.040-129.907v-8.972c0-3.896 3.121-7.412 7.412-7.412h153.702c3.901 0 7.412 3.516 7.412 7.412v26.921c0 3.901-3.511 7.417-7.412 7.417h-84.265c20.675 26.132 50.322 62.805 67.096 86.601 15.223 21.845 26.146 37.834 26.146 63.195z" />
<glyph unicode="&#xe629;" glyph-name="cart-solid" d="M820.775 380.884l79.404 185.905c8.68 15.979 7.929 35.752-2.068 52.892-0.127 0.254-0.283 0.468-0.439 0.722-10.216 16.013-27.355 26.010-44.9 26.288l-578.462 36.381v71.851c0 11.498-9.338 20.836-20.836 20.836h-114.82c-11.498 0-20.836-9.338-20.836-20.836s9.338-20.836 20.836-20.836h93.974v-70.91c0-0.127 0.029-0.254 0.029-0.375 0.029-1.034 0.127-2.038 0.312-3.072 0.283-1.629 0.688-3.228 1.317-4.701l97.012-310.428c0.063-0.19 0.156-0.346 0.219-0.532l-19.051-59.475c-2.038-6.329-0.907-13.253 3.009-18.642s10.181-8.553 16.828-8.553h474.307c11.498 0 20.836 9.338 20.836 20.836s-9.338 20.836-20.836 20.836h-445.733l10.181 31.773 402.647 18.398c20.465 1.336 38.449 13.463 47.070 31.642zM420.225 173.071c0-29.176-23.652-52.829-52.829-52.829s-52.829 23.652-52.829 52.829c0 29.176 23.652 52.829 52.829 52.829s52.829-23.652 52.829-52.829zM807.453 173.071c0-29.176-23.652-52.829-52.829-52.829s-52.829 23.652-52.829 52.829c0 29.176 23.652 52.829 52.829 52.829s52.829-23.652 52.829-52.829z" />
<glyph unicode="&#xe62a;" glyph-name="cart" d="M821.043 396.156c0.093 0.19 0.156 0.346 0.249 0.532l79.404 185.783c8.148 15.794 7.207 35.094-2.57 51.888-0.127 0.254-0.283 0.468-0.439 0.722-10.186 15.979-27.326 26.010-44.9 26.292l-578.497 36.376v71.851c0 11.498-9.338 20.836-20.836 20.836h-114.815c-11.498 0-20.836-9.338-20.836-20.836s9.338-20.836 20.836-20.836h93.974v-70.91c0-0.127 0.029-0.249 0.029-0.375 0.029-1.034 0.127-2.033 0.312-3.072 0.283-1.629 0.688-3.228 1.317-4.701l97.012-310.428c0.063-0.19 0.156-0.346 0.219-0.532l-19.051-59.475c-2.038-6.329-0.907-13.253 3.009-18.642s10.181-8.553 16.828-8.553h474.307c11.498 0 20.836 9.338 20.836 20.836s-9.338 20.836-20.836 20.836h-445.733l10.181 31.773 402.647 18.393c20.685 1.38 38.829 13.722 47.353 32.241zM771.345 405.494l-399.014-18.266c-2.102 2.068-4.667 3.73-7.617 4.764l-82.31 263.422 568.344-35.718c0.439-0.034 0.878-0.034 1.317-0.034 3.511 0 7.582-2.662 10.245-6.676 2.321-4.198 2.818-8.709 1.253-11.625-0.312-0.566-0.595-1.161-0.848-1.785l-79.618-186.222c-2.194-4.506-6.797-7.548-11.752-7.86zM367.353 250.86c-40.043 0-72.631-32.588-72.631-72.665s32.588-72.631 72.631-72.631 72.631 32.588 72.631 72.631c0 40.043-32.588 72.665-72.631 72.665zM367.353 147.237c-17.076 0-30.959 13.883-30.959 30.959s13.883 30.959 30.959 30.959 30.959-13.883 30.959-30.959c0-17.076-13.883-30.959-30.959-30.959zM754.581 250.86c-40.043 0-72.631-32.588-72.631-72.665s32.588-72.631 72.631-72.631c40.043 0 72.636 32.588 72.636 72.631s-32.588 72.665-72.636 72.665zM754.581 147.237c-17.076 0-30.959 13.883-30.959 30.959s13.883 30.959 30.959 30.959c17.076 0 30.959-13.883 30.959-30.959s-13.883-30.959-30.959-30.959z" />
<glyph unicode="&#xe62b;" glyph-name="chatting" d="M886.789 714.767h-613.688c-11.756 0-21.285-9.528-21.285-21.285v-122.724h-114.605c-11.756 0-21.285-9.528-21.285-21.285v-368.216c0-11.756 9.533-21.285 21.285-21.285h101.449v-101.464c0-8.611 5.188-16.369 13.141-19.666 2.633-1.092 5.398-1.619 8.138-1.619 5.539 0 10.981 2.16 15.053 6.237l116.507 116.512h359.4c11.756 0 21.285 9.528 21.285 21.285v122.724h114.605c11.756 0 21.285 9.528 21.285 21.285v368.216c0.005 11.756-9.528 21.285-21.285 21.285zM729.615 202.542h-346.931c-5.647 0-11.059-2.243-15.048-6.237l-86.406-86.411v71.363c0 11.756-9.533 21.285-21.285 21.285h-101.449v325.642h571.119v-325.642zM865.504 346.551h-93.321v202.918c0 11.756-9.533 21.285-21.285 21.285h-456.514v101.439h571.119v-325.642zM234.891 399.692h309.94c10.099 0 18.286 8.187 18.286 18.286s-8.187 18.286-18.286 18.286h-309.94c-10.099 0-18.286-8.187-18.286-18.286s8.187-18.286 18.286-18.286zM629.243 344.205h-394.352c-10.099 0-18.286-8.187-18.286-18.286s8.187-18.286 18.286-18.286h394.352c10.099 0 18.286 8.187 18.286 18.286s-8.182 18.286-18.286 18.286z" />
<glyph unicode="&#xe62c;" glyph-name="check-circle-solid" d="M512.005 867.781c-231.473 0-419.791-188.314-419.791-419.781s188.318-419.781 419.791-419.781c231.468 0 419.781 188.314 419.781 419.781s-188.314 419.781-419.781 419.781zM711.373 592.686l-216.313-313.422c-3.833-5.554-10.069-8.958-16.813-9.182-0.234-0.005-0.473-0.010-0.707-0.010-6.485 0-12.629 2.96-16.677 8.060l-132.774 167.444c-7.305 9.211-5.759 22.596 3.452 29.901s22.601 5.759 29.901-3.452l114.912-144.916 199.982 289.758c6.676 9.674 19.934 12.103 29.608 5.427s12.108-19.929 5.427-29.608z" />
<glyph unicode="&#xe62d;" glyph-name="check-circle" d="M512.005 867.781c-231.473 0-419.791-188.314-419.791-419.781s188.318-419.781 419.791-419.781c231.468 0 419.781 188.314 419.781 419.781s-188.314 419.781-419.781 419.781zM512.005 70.793c-207.999 0-377.217 169.214-377.217 377.207s169.218 377.207 377.217 377.207c207.994 0 377.207-169.214 377.207-377.207s-169.214-377.207-377.207-377.207zM707.013 623.84c-10.528 7.266-24.956 4.623-32.217-5.905l-198.544-287.671-113.337 142.931c-7.948 10.025-22.513 11.703-32.539 3.76-10.025-7.948-11.708-22.513-3.76-32.539l132.774-167.444c4.398-5.554 11.088-8.772 18.144-8.772 0.258 0 0.512 0.005 0.77 0.010 7.334 0.244 14.121 3.955 18.291 9.991l216.313 313.422c7.275 10.528 4.632 24.951-5.895 32.217z" />
<glyph unicode="&#xe62e;" glyph-name="check-product-solid" d="M782.794 797.145h-541.589c-5.383 0-9.752-4.369-9.752-9.752v-678.78c0-5.383 4.369-9.752 9.752-9.752h541.589c5.383 0 9.752 4.369 9.752 9.752v678.78c0 5.383-4.364 9.752-9.752 9.752zM345.546 692.551c0 2.692 2.185 4.876 4.876 4.876h315.836c2.692 0 4.876-2.185 4.876-4.876v-32.334c0-2.692-2.185-4.876-4.876-4.876h-315.836c-2.692 0-4.876 2.185-4.876 4.876v32.334zM420.996 217.376c0-2.692-2.185-4.876-4.876-4.876h-65.697c-2.692 0-4.876 2.185-4.876 4.876v65.697c0 2.692 2.185 4.876 4.876 4.876h65.697c2.692 0 4.876-2.185 4.876-4.876v-65.697zM420.996 360.833c0-2.692-2.185-4.876-4.876-4.876h-65.697c-2.692 0-4.876 2.185-4.876 4.876v65.697c0 2.692 2.185 4.876 4.876 4.876h65.697c2.692 0 4.876-2.185 4.876-4.876v-65.697zM420.996 504.291c0-2.692-2.185-4.876-4.876-4.876h-65.697c-2.692 0-4.876 2.185-4.876 4.876v65.697c0 2.692 2.185 4.876 4.876 4.876h65.697c2.692 0 4.876-2.185 4.876-4.876v-65.697zM671.139 222.188h-203.162c-4.037 0-7.314 3.277-7.314 7.314s3.277 7.314 7.314 7.314h203.162c4.037 0 7.314-3.277 7.314-7.314s-3.277-7.314-7.314-7.314zM671.139 263.631h-203.162c-4.037 0-7.314 3.277-7.314 7.314s3.277 7.314 7.314 7.314h203.162c4.037 0 7.314-3.277 7.314-7.314s-3.277-7.314-7.314-7.314zM671.139 365.646h-203.162c-4.037 0-7.314 3.277-7.314 7.314s3.277 7.314 7.314 7.314h203.162c4.037 0 7.314-3.277 7.314-7.314s-3.277-7.314-7.314-7.314zM671.139 407.089h-203.162c-4.037 0-7.314 3.277-7.314 7.314s3.277 7.314 7.314 7.314h203.162c4.037 0 7.314-3.277 7.314-7.314s-3.277-7.314-7.314-7.314zM671.139 509.108h-203.162c-4.037 0-7.314 3.277-7.314 7.314s3.277 7.314 7.314 7.314h203.162c4.037 0 7.314-3.277 7.314-7.314s-3.277-7.314-7.314-7.314zM671.139 550.546h-203.162c-4.037 0-7.314 3.277-7.314 7.314s3.277 7.314 7.314 7.314h203.162c4.037 0 7.314-3.277 7.314-7.314s-3.277-7.314-7.314-7.314z" />
<glyph unicode="&#xe62f;" glyph-name="check" d="M477.54 268.195c-7.056 0-13.746 3.218-18.144 8.772l-132.774 167.444c-7.948 10.025-6.266 24.591 3.76 32.539 10.021 7.943 24.591 6.266 32.539-3.76l113.337-142.931 198.544 287.671c7.261 10.528 21.684 13.171 32.217 5.905 10.528-7.266 13.171-21.689 5.905-32.217l-216.313-313.422c-4.169-6.042-10.957-9.748-18.291-9.991-0.263-0.005-0.522-0.010-0.78-0.010z" />
<glyph unicode="&#xe630;" glyph-name="clock" d="M512 867.786c-231.468 0-419.786-188.318-419.786-419.786s188.318-419.791 419.786-419.791 419.786 188.318 419.786 419.791-188.318 419.786-419.786 419.786zM512 70.778c-207.999 0-377.212 169.223-377.212 377.222s169.214 377.217 377.212 377.217 377.212-169.218 377.212-377.217-169.214-377.222-377.212-377.222zM524.054 704.951c-11.756 0-21.285-9.533-21.285-21.285v-223.993h-171.028c-11.756 0-21.285-9.533-21.285-21.285s9.533-21.285 21.285-21.285h192.307c11.756 0 21.285 9.533 21.285 21.285v245.277c0.005 11.756-9.528 21.285-21.28 21.285z" />
<glyph unicode="&#xe631;" glyph-name="cloudy" d="M816.625 410.609c-8.309 52.443-46.143 96.724-97.485 118.799-15.38 63.732-73.513 110.397-140.098 110.397-17.12 0-34.114-3.072-50.083-8.987-30.301 48.713-87.162 79.199-150.557 79.199-86.304 0-159.091-58.534-171.023-133.847-62.996-11.010-104.126-53.926-104.126-110.904 0-66.955 56.744-113.718 137.982-113.718h61.201c-1.048-6.997-1.604-14.151-1.604-21.436 0-79.472 64.658-144.13 144.13-144.13h337.813c81.237 0 137.982 46.763 137.982 113.718-0.005 56.983-41.136 99.899-104.131 110.909zM315.811 394.118h-74.581c-57.066 0-95.408 28.589-95.408 71.148 0 39.814 31.7 66.896 82.734 70.671 10.923 0.809 19.451 9.777 19.71 20.729 1.429 61.084 59.811 110.782 130.136 110.782 53.604 0 102.502-29.282 121.671-72.865 2.409-5.476 7.012-9.684 12.688-11.6 5.656-1.902 11.888-1.346 17.12 1.556 14.975 8.304 31.978 12.698 49.167 12.698 38.234 0 72.528-21.821 89.776-54.179-0.756 0.093-1.521 0.122-2.282 0.205-2.545 0.283-5.11 0.517-7.69 0.697-0.961 0.063-1.921 0.132-2.887 0.18-3.433 0.19-6.885 0.317-10.367 0.317-63.39 0-120.252-30.486-150.552-79.199-15.965 5.91-32.963 8.982-50.083 8.982-3.14 0-6.246-0.137-9.338-0.336-0.688-0.044-1.365-0.102-2.053-0.156-2.906-0.229-5.788-0.532-8.641-0.931-0.137-0.020-0.268-0.034-0.405-0.049-30.349-4.33-57.666-18.149-78.872-38.346-0.176-0.166-0.351-0.332-0.522-0.497-4.403-4.233-8.543-8.738-12.381-13.497-0.595-0.736-1.175-1.487-1.76-2.233-1.268-1.634-2.492-3.296-3.686-4.983-0.566-0.795-1.151-1.575-1.697-2.384-1.482-2.185-2.896-4.418-4.262-6.69-0.629-1.048-1.229-2.116-1.829-3.179-0.883-1.556-1.731-3.126-2.555-4.715-0.375-0.722-0.795-1.399-1.151-2.121zM782.77 228.557h-337.813c-55.998 0-101.556 45.558-101.556 101.556 0 13.531 2.711 26.424 7.534 38.239 0.297 0.731 0.595 1.463 0.907 2.185 1.063 2.443 2.214 4.837 3.462 7.178 0.176 0.327 0.332 0.668 0.507 0.99 1.516 2.775 3.155 5.476 4.92 8.085 0.078 0.117 0.166 0.229 0.249 0.346 1.58 2.321 3.277 4.554 5.037 6.734 0.561 0.692 1.141 1.36 1.721 2.033 1.326 1.551 2.701 3.057 4.116 4.53 0.775 0.805 1.546 1.609 2.345 2.384 1.317 1.278 2.687 2.492 4.067 3.696 1.385 1.209 2.794 2.384 4.242 3.516 1.521 1.195 3.057 2.375 4.652 3.482 1.434 0.995 2.921 1.907 4.403 2.823 0.922 0.571 1.838 1.146 2.779 1.692 1.57 0.907 3.165 1.77 4.784 2.589 0.902 0.458 1.814 0.887 2.731 1.317 1.682 0.795 3.369 1.585 5.1 2.287 0.722 0.293 1.473 0.532 2.199 0.809 3.013 1.146 6.090 2.136 9.216 2.989 1.477 0.4 2.955 0.814 4.457 1.151 1.326 0.297 2.672 0.546 4.018 0.79 1.838 0.332 3.691 0.619 5.559 0.848 1.107 0.141 2.214 0.293 3.326 0.395 3.043 0.273 6.11 0.468 9.221 0.468 17.193 0 34.197-4.384 49.167-12.693 5.242-2.911 11.469-3.462 17.12-1.556 5.671 1.916 10.274 6.124 12.688 11.6 19.173 43.583 68.067 72.86 121.666 72.86 3.896 0 7.768-0.176 11.615-0.473 0.332-0.024 0.663-0.039 0.995-0.068 3.491-0.293 6.949-0.751 10.391-1.287 0.746-0.117 1.502-0.219 2.243-0.346 3.048-0.527 6.066-1.185 9.070-1.902 1.131-0.273 2.267-0.532 3.384-0.834 2.57-0.678 5.11-1.468 7.641-2.287 48.469-15.872 83.705-56.305 84.807-103.58 0.258-10.952 8.787-19.919 19.71-20.729 51.034-3.774 82.734-30.857 82.734-70.671 0-42.559-38.346-71.148-95.412-71.148z" />
<glyph unicode="&#xe632;" glyph-name="contact-solid" d="M943.834 780.272h-863.665c-13.893 0-25.154-11.268-25.154-25.154v-614.223c0-13.893 11.268-25.154 25.154-25.154h863.661c13.893 0 25.154 11.268 25.154 25.154v614.223c0.007 13.891-11.261 25.154-25.148 25.154zM273.080 544.264c0 46.626 34.609 84.56 77.153 84.56 42.531 0 77.139-37.933 77.139-84.56v-20.87c0-46.626-34.609-84.56-77.139-84.56-42.544 0-77.153 37.933-77.153 84.56v20.87zM529.083 282.232c-1.907-2.242-4.71-3.533-7.655-3.533h-342.421c-2.945 0-5.748 1.291-7.655 3.533-1.914 2.242-2.75 5.212-2.282 8.12l10.76 67.224c0.040 0.26 0.093 0.519 0.155 0.77 3.326 13.768 11.71 23.802 28.038 33.551 0.155 0.1 0.321 0.188 0.488 0.275l63.982 33.524c3.748 1.967 8.332 1.372 11.456-1.486 13.323-12.178 35.632-26.693 66.264-26.693s52.944 14.516 66.264 26.693c3.131 2.858 7.709 3.453 11.456 1.486l63.982-33.524c0.167-0.087 0.335-0.18 0.488-0.275 16.327-9.75 24.711-19.786 28.038-33.551 0.062-0.255 0.115-0.515 0.155-0.77l10.753-67.224c0.478-2.91-0.355-5.877-2.269-8.12zM847.55 450.743h-318.997c-9.549 0-17.291 7.742-17.291 17.291s7.742 17.291 17.291 17.291h318.997c9.549 0 17.291-7.742 17.291-17.291s-7.742-17.291-17.291-17.291zM847.55 539.599h-318.997c-9.549 0-17.291 7.742-17.291 17.291s7.742 17.291 17.291 17.291h318.997c9.549 0 17.291-7.742 17.291-17.291s-7.742-17.291-17.291-17.291z" />
<glyph unicode="&#xe633;" glyph-name="contact" d="M944.388 782.009h-864.773c-13.727 0-24.86-11.128-24.86-24.86v-618.305c0-13.727 11.128-24.86 24.86-24.86h864.77c13.727 0 24.86 11.128 24.86 24.86v618.305c0.008 13.721-11.127 24.86-24.853 24.86zM919.52 163.706h-815.048v568.589h815.052v-568.589zM526.369 534.238h315.202c11.795 0 21.356 9.561 21.356 21.356s-9.561 21.356-21.356 21.356h-315.202c-11.795 0-21.356-9.561-21.356-21.356s9.561-21.356 21.356-21.356zM526.369 452.134h315.202c11.795 0 21.356 9.561 21.356 21.356s-9.561 21.356-21.356 21.356h-315.202c-11.795 0-21.356-9.561-21.356-21.356s9.561-21.356 21.356-21.356zM350.164 427.561c42.026 0 76.217 37.477 76.217 83.556v20.618c0 46.073-34.196 83.556-76.217 83.556-42.033 0-76.229-37.477-76.229-83.556v-20.618c0-46.073 34.196-83.556 76.229-83.556zM180.983 280.719h338.341c2.907 0 5.678 1.273 7.564 3.486 1.894 2.216 2.709 5.151 2.255 8.026l-10.626 66.425c-0.047 0.257-0.093 0.516-0.151 0.766-3.283 13.602-11.572 23.522-27.702 33.153-0.151 0.101-0.314 0.188-0.48 0.271l-63.221 33.129c-3.698 1.941-8.23 1.357-11.322-1.471-13.169-12.034-35.217-26.374-65.476-26.374-30.272 0-52.315 14.342-65.483 26.374-3.085 2.821-7.62 3.408-11.322 1.471l-63.221-33.129c-0.164-0.085-0.329-0.178-0.48-0.271-16.137-9.632-24.408-19.551-27.702-33.153-0.062-0.251-0.111-0.509-0.151-0.766l-10.627-66.425c-0.454-2.873 0.361-5.81 2.255-8.026 1.879-2.216 4.65-3.486 7.557-3.486z" />
<glyph unicode="&#xe634;" glyph-name="credit-card-solid" d="M850.295 719.111h-676.591c-24.088 0-43.691-19.597-43.691-43.686v-63.166c0-11.371 9.216-20.582 20.582-20.582h722.803c11.366 0 20.582 9.216 20.582 20.582v63.166c0.005 24.088-19.593 43.686-43.686 43.686zM873.399 512.41h-722.798c-11.366 0-20.582-9.216-20.582-20.582v-271.253c0-24.088 19.597-43.686 43.691-43.686h676.591c24.088 0 43.691 19.597 43.691 43.686v271.253c-0.005 11.366-9.221 20.582-20.592 20.582zM552.945 394.313c0-2.604-2.111-4.715-4.715-4.715h-87.927c-2.604 0-4.715 2.111-4.715 4.715v48.967c0 2.604 2.111 4.715 4.715 4.715h87.923c2.604 0 4.715-2.111 4.715-4.715v-48.967zM688.528 394.313c0-2.604-2.111-4.715-4.715-4.715h-87.927c-2.604 0-4.715 2.111-4.715 4.715v48.967c0 2.604 2.111 4.715 4.715 4.715h87.927c2.604 0 4.715-2.111 4.715-4.715v-48.967zM824.11 394.313c0-2.604-2.111-4.715-4.715-4.715h-87.927c-2.604 0-4.715 2.111-4.715 4.715v48.967c0 2.604 2.111 4.715 4.715 4.715h87.927c2.604 0 4.715-2.111 4.715-4.715v-48.967z" />
<glyph unicode="&#xe635;" glyph-name="credit-card" d="M861.837 728.361h-699.675c-24.912 0-45.178-20.265-45.178-45.178v-470.367c0-24.908 20.265-45.178 45.178-45.178h699.67c24.912 0 45.178 20.265 45.178 45.178v470.367c0.005 24.908-20.261 45.178-45.173 45.178zM162.163 685.787h699.67c1.438 0 2.609-1.165 2.609-2.604v-65.321h-704.883v65.321c0 1.438 1.165 2.604 2.604 2.604zM861.837 210.213h-699.675c-1.438 0-2.609 1.165-2.609 2.604v280.503h704.887v-280.503c0-1.438-1.165-2.604-2.604-2.604zM820.131 448h-96.597c-2.862 0-5.179-2.321-5.179-5.179v-53.794c0-2.862 2.321-5.179 5.179-5.179h96.597c2.862 0 5.179 2.321 5.179 5.179v53.794c0 2.857-2.321 5.179-5.179 5.179zM676.050 448h-96.597c-2.862 0-5.179-2.321-5.179-5.179v-53.794c0-2.862 2.321-5.179 5.179-5.179h96.597c2.862 0 5.179 2.321 5.179 5.179v53.794c0.005 2.857-2.316 5.179-5.179 5.179zM531.973 448h-96.597c-2.862 0-5.179-2.321-5.179-5.179v-53.794c0-2.862 2.321-5.179 5.179-5.179h96.597c2.862 0 5.179 2.321 5.179 5.179v53.794c0 2.857-2.321 5.179-5.179 5.179z" />
<glyph unicode="&#xe636;" glyph-name="document-solid" d="M867.299 789.758c-1.721 1.936-4.135 3.111-6.715 3.262l-365.846 21.826c-5.427 0.444-9.996-3.774-10.313-9.153l-18.334-307.293-118.833 298.272c-6.978 17.515-26.829 26.053-44.344 19.076l-139.264-55.481c-17.51-6.978-26.053-26.829-19.076-44.344l90.18-226.358h61.055l-14.902 37.405c-1.497 3.76 0.332 8.012 4.086 9.504 3.75 1.482 8.012-0.332 9.504-4.086l17.062-42.823h48.986l-36.406 91.37c-1.497 3.76 0.332 8.012 4.086 9.504 3.75 1.477 8.012-0.327 9.504-4.091l38.561-96.788h24.235l-41.882 105.121c-1.497 3.76 0.332 8.012 4.086 9.504 3.75 1.487 8.007-0.332 9.504-4.091l44.037-110.533h147.719l0.907-0.215c0.566-0.093 1.112-0.234 1.648-0.39l0.254-0.059c0.18-0.054 0.346-0.122 0.522-0.18 0.268-0.098 0.546-0.166 0.805-0.278 0.005 0 0.015-0.005 0.020-0.005 0.307-0.132 0.595-0.297 0.883-0.458l-0.010-0.020c0.171-0.093 0.341-0.176 0.507-0.273l0.010 0.010c0.122-0.068 0.229-0.141 0.351-0.21 0.166-0.102 0.341-0.19 0.507-0.302 0.005-0.005 0.015-0.005 0.015-0.005 0.312-0.215 0.6-0.458 0.878-0.697l-0.015-0.015c0.127-0.102 0.258-0.205 0.385-0.317l0.010 0.010c0.098-0.078 0.171-0.156 0.263-0.239 0.146-0.137 0.302-0.254 0.444-0.4 0.010-0.010 0.020-0.015 0.029-0.024 0.249-0.254 0.463-0.517 0.97-1.161 0.078-0.093 0.146-0.2 0.219-0.293 0.137-0.185 0.288-0.356 0.414-0.546 0.010-0.015 0.020-0.024 0.029-0.044 0.176-0.268 0.317-0.541 0.463-0.824l-0.020-0.010c0.093-0.166 0.185-0.327 0.268-0.492l0.015 0.005c0.054-0.102 0.102-0.215 0.156-0.317 0.098-0.21 0.215-0.405 0.302-0.619 0.005-0.005 0.005-0.015 0.010-0.020 0.137-0.327 0.239-0.678 0.336-1.024l-0.020-0.005c0.049-0.161 0.102-0.317 0.151-0.483h0.015c0.034-0.107 0.059-0.229 0.093-0.341 0.054-0.215 0.132-0.424 0.171-0.644 0-0.010 0.005-0.020 0.010-0.029 0.093-0.473 0.122-0.951 0.185-1.741l0.068-0.634v-200.319l252.557-15.072c0.2-0.015 0.395-0.020 0.59-0.020 5.12 0 9.416 3.989 9.723 9.172l30.618 512.683c0.166 2.57-0.712 5.105-2.428 7.041zM333.044 679.053l-18.617 14.98c-7.846-4.428-17.642-9.387-28.019-14.238l27.399-45.656-13.234-5.271-38.834 40.102c-1.434-0.59-2.867-1.17-4.281-1.736-34.299-13.668-47.66-14.117-49.727-8.928-2.063 5.183 7.943 14.043 42.242 27.711 1.414 0.566 2.857 1.126 4.306 1.692l0.619 55.818 13.234 5.276 11.498-51.995c10.874 3.618 21.392 6.749 30.13 8.933l3.213 23.684 8.948 3.56 3.877-24.166 2.384-5.993 13.8-20.212-8.938-3.56zM517.359 540.365l-26.19 1.56 0.712 12.195 26.219-1.56-0.741-12.195zM569.739 537.244l-26.219 1.575 0.741 12.181 26.2-1.56-0.722-12.195zM659.919 609.251l12.181-0.727-1.668-28.404-12.181 0.727 1.668 28.404zM622.129 534.114l-26.19 1.565 0.712 12.195 26.219-1.575-0.741-12.186zM653.483 296.014l-12.21 0.741 1.697 28.404 12.181-0.712-1.668-28.433zM656.847 352.836l-12.181 0.727 1.697 28.414 12.21-0.741-1.726-28.399zM660.236 409.659l-12.181 0.727 1.697 28.404 12.181-0.727-1.697-28.404zM663.654 466.476l-12.21 0.727 1.726 28.404 12.181-0.712-1.697-28.418zM674.514 530.988l-6.983 0.414-0.483-8.124-12.21 0.741 0.492 8.104-7.007 0.419 0.712 12.186 7.031-0.419 0.492 8.109 12.181-0.727-0.483-8.109 6.997-0.414-0.741-12.181zM673.826 636.938l-12.181 0.712 1.697 28.404 12.181-0.712-1.697-28.404zM677.215 693.731l-12.21 0.741 1.726 28.414 12.181-0.727-1.697-28.428zM680.609 750.568l-12.181 0.727 1.668 28.404 12.21-0.727-1.697-28.404zM726.903 527.867l-26.171 1.546 0.712 12.195 26.19-1.56-0.731-12.181zM779.284 524.727l-26.161 1.56 0.688 12.195 26.219-1.56-0.746-12.195zM831.693 521.606l-26.19 1.575 0.712 12.181 26.219-1.56-0.741-12.195zM556.564 482.25l-313.29-0.268c-0.254-0.059-0.483-0.171-0.727-0.244-0.429-0.127-0.863-0.244-1.273-0.424-0.322-0.137-0.605-0.322-0.907-0.492-0.322-0.18-0.653-0.341-0.956-0.551-0.307-0.21-0.575-0.468-0.858-0.707-0.258-0.219-0.527-0.424-0.761-0.668-0.249-0.258-0.458-0.546-0.683-0.824-0.219-0.278-0.453-0.541-0.649-0.839-0.185-0.283-0.327-0.595-0.488-0.892-0.176-0.327-0.361-0.644-0.502-0.99-0.137-0.336-0.219-0.692-0.322-1.044-0.098-0.332-0.219-0.653-0.283-1.004-0.083-0.424-0.102-0.863-0.132-1.302-0.020-0.268-0.083-0.522-0.083-0.795v-383.932c0-6.095 4.94-11.035 11.035-11.035h310.872c6.095 0 11.035 4.94 11.035 11.035v383.932c0.005 6.105-4.935 11.045-11.030 11.045zM360.155 395.025c0 25.566 18.978 46.368 42.306 46.368 23.323 0 42.301-20.802 42.301-46.368v-11.444c0-25.571-18.978-46.373-42.301-46.373-23.328 0-42.306 20.802-42.306 46.373v11.444zM309.024 293.917c0.024 0.141 0.054 0.283 0.083 0.424 1.824 7.548 6.422 13.054 15.375 18.398 0.088 0.054 0.176 0.102 0.268 0.151l35.084 18.383c2.053 1.078 4.569 0.751 6.285-0.814 7.305-6.68 19.539-14.638 36.337-14.638s29.033 7.958 36.337 14.638c1.716 1.565 4.228 1.892 6.285 0.814l35.084-18.383c0.093-0.049 0.185-0.098 0.268-0.151 8.953-5.349 13.551-10.85 15.375-18.398 0.034-0.141 0.063-0.283 0.088-0.424l5.9-36.864c0.254-1.595-0.205-3.223-1.253-4.452s-2.584-1.936-4.198-1.936h-187.767c-1.614 0-3.15 0.707-4.198 1.936s-1.507 2.853-1.253 4.452l5.9 36.864zM487.995 201.489c0-4.189-3.399-7.587-7.582-7.587h-155.906c-4.189 0-7.582 3.394-7.582 7.587 0 4.189 3.394 7.582 7.582 7.582h155.902c4.189 0 7.587-3.394 7.587-7.582zM503.394 151.513h-201.874c-4.189 0-7.582 3.394-7.582 7.582s3.394 7.582 7.582 7.582h201.874c4.189 0 7.582-3.394 7.582-7.582s-3.394-7.582-7.582-7.582z" />
<glyph unicode="&#xe637;" glyph-name="edit" d="M450.375 319.449h-141.015c-11.756 0-21.285-9.528-21.285-21.285s9.533-21.285 21.285-21.285h141.015c11.756 0 21.285 9.528 21.285 21.285s-9.528 21.285-21.285 21.285zM992.251 662.279l-98.031 99.299c-8.255 8.368-21.723 8.446-30.091 0.205l-74.323-73.289v32.705c0 11.756-9.533 21.285-21.285 21.285h-549.766c-11.756 0-21.285-9.528-21.285-21.285v-587.015c0-11.756 9.533-21.285 21.285-21.285h549.761c11.756 0 21.285 9.528 21.285 21.285v298.642l115.658 114.176 86.562 85.148c4.028 3.964 6.315 9.367 6.359 15.019 0.049 5.656-2.16 11.093-6.129 15.111zM747.232 155.472h-507.187v544.441h507.192v-53.399l-55.696-54.925c-1.136 0.19-2.287 0.351-3.477 0.351h-378.704c-11.756 0-21.285-9.528-21.285-21.285s9.533-21.285 21.285-21.285h339.358l-73.635-72.616c-0.044-0.044-0.078-0.102-0.122-0.146-0.853-0.858-1.624-1.799-2.326-2.794-0.156-0.224-0.302-0.449-0.449-0.678-0.668-1.029-1.278-2.102-1.765-3.248l-6.003-14.19h-255.059c-11.756 0-21.285-9.528-21.285-21.285s9.533-21.285 21.285-21.285h237.061l-47.172-111.548c-3.355-7.938-1.595-17.115 4.457-23.245 4.081-4.135 9.567-6.334 15.15-6.334 2.701 0 5.432 0.512 8.031 1.575l169.209 69.003c0.010 0.005 0.020 0.010 0.029 0.015 0.024 0.010 0.049 0.024 0.073 0.034 1.122 0.463 2.175 1.048 3.184 1.682 0.229 0.141 0.453 0.283 0.678 0.439 1.004 0.688 1.95 1.443 2.818 2.282 0.044 0.039 0.093 0.068 0.132 0.107l44.222 43.657v-235.325zM650.557 369.986l-92.033-37.527 38.712 91.541 0.697-0.702 52.624-53.311zM875.583 577.326l-122.11-120.544c-0.005-0.005-0.010-0.010-0.020-0.020l-65.204-64.371-68.12 69.003 163.401 161.129c0.020 0.020 0.039 0.039 0.059 0.059l95.276 93.95 68.106-68.988-71.387-70.217z" />
<glyph unicode="&#xe638;" glyph-name="email" d="M905.304 694.755c0 0.341-0.083 0.658-0.102 0.995-0.034 0.746-0.112 1.477-0.224 2.219-0.102 0.673-0.224 1.331-0.39 1.98-0.166 0.663-0.375 1.312-0.61 1.965-0.244 0.683-0.507 1.346-0.819 1.994-0.273 0.575-0.585 1.131-0.917 1.687-0.4 0.673-0.829 1.317-1.297 1.936-0.195 0.254-0.322 0.541-0.532 0.79-0.2 0.244-0.449 0.419-0.658 0.653-0.512 0.571-1.058 1.097-1.629 1.609-0.492 0.444-0.99 0.863-1.516 1.253-0.566 0.419-1.156 0.79-1.765 1.151-0.585 0.351-1.17 0.683-1.785 0.97-0.624 0.293-1.263 0.536-1.921 0.77-0.653 0.229-1.302 0.444-1.97 0.61-0.653 0.161-1.312 0.278-1.985 0.38-0.731 0.112-1.458 0.19-2.199 0.219-0.327 0.015-0.634 0.098-0.965 0.098h-744.009c-0.332 0-0.639-0.083-0.965-0.098-0.736-0.034-1.463-0.112-2.194-0.219-0.678-0.102-1.341-0.219-1.994-0.38-0.663-0.166-1.312-0.38-1.96-0.61-0.658-0.234-1.307-0.483-1.936-0.775-0.605-0.283-1.185-0.614-1.77-0.961-0.614-0.366-1.209-0.741-1.78-1.165-0.522-0.385-1.014-0.805-1.507-1.243-0.575-0.512-1.122-1.044-1.638-1.614-0.21-0.229-0.458-0.405-0.658-0.649-0.205-0.249-0.336-0.536-0.532-0.79-0.468-0.624-0.897-1.263-1.297-1.936-0.332-0.556-0.639-1.112-0.917-1.687-0.312-0.649-0.575-1.312-0.824-1.999-0.234-0.649-0.439-1.297-0.61-1.96-0.166-0.653-0.288-1.312-0.39-1.985-0.112-0.741-0.19-1.473-0.224-2.219-0.015-0.336-0.102-0.653-0.102-0.995v-510.108c0-0.107 0.029-0.21 0.034-0.317 0.010-0.819 0.141-1.629 0.249-2.443 0.078-0.58 0.098-1.175 0.219-1.741 0.151-0.692 0.41-1.356 0.629-2.033 0.205-0.639 0.366-1.297 0.629-1.911 0.244-0.566 0.59-1.087 0.887-1.629 0.366-0.673 0.692-1.36 1.122-1.985 0.302-0.439 0.692-0.829 1.034-1.253 0.546-0.673 1.078-1.356 1.702-1.96 0.073-0.068 0.122-0.156 0.195-0.224 0.39-0.366 0.829-0.629 1.239-0.956 0.58-0.473 1.141-0.961 1.77-1.37 0.595-0.385 1.224-0.678 1.843-1 0.58-0.302 1.136-0.629 1.746-0.878 0.756-0.302 1.531-0.502 2.306-0.717 0.532-0.146 1.039-0.346 1.585-0.453 1.351-0.263 2.721-0.414 4.091-0.414v0c0 0 0 0 0 0h744.009c0 0 0 0 0 0 1.37 0 2.74 0.151 4.091 0.414 0.546 0.107 1.053 0.302 1.585 0.453 0.775 0.215 1.556 0.41 2.306 0.717 0.61 0.249 1.165 0.58 1.746 0.878 0.619 0.322 1.248 0.614 1.843 1 0.629 0.41 1.19 0.897 1.77 1.37 0.405 0.332 0.848 0.59 1.239 0.956 0.073 0.068 0.122 0.156 0.195 0.224 0.624 0.605 1.156 1.282 1.702 1.96 0.341 0.419 0.731 0.814 1.034 1.253 0.429 0.624 0.756 1.312 1.122 1.98 0.297 0.546 0.644 1.073 0.892 1.638 0.263 0.61 0.419 1.263 0.629 1.902 0.219 0.678 0.483 1.346 0.634 2.038 0.122 0.566 0.146 1.161 0.219 1.741 0.107 0.814 0.234 1.624 0.249 2.443 0 0.107 0.034 0.21 0.034 0.317v510.113zM161.295 649.509l217.498-180.024-217.498-231.156v411.18zM512 414.481l-312.895 258.989h625.815l-312.92-258.989zM411.648 442.285l86.782-71.831c3.94-3.262 8.753-4.891 13.57-4.891 4.813 0 9.635 1.629 13.57 4.891l86.791 71.831 222.403-236.354h-645.505l222.388 236.354zM645.218 469.484l217.512 180.029v-411.19l-217.512 231.161z" />
<glyph unicode="&#xe639;" glyph-name="exchange-arrow" d="M290.119 421.010c3.998-3.394 8.889-5.057 13.756-5.057 6.037 0 12.030 2.555 16.243 7.519 7.607 8.967 6.5 22.396-2.462 29.998l-116.37 98.704h664.805c11.756 0 21.285 9.533 21.285 21.285s-9.533 21.285-21.285 21.285h-664.805l116.365 98.704c8.967 7.602 10.069 21.031 2.462 29.998-7.607 8.962-21.036 10.064-29.998 2.462l-160.597-136.216c-0.195-0.166-0.336-0.38-0.522-0.551-0.673-0.614-1.282-1.282-1.877-1.98-0.361-0.429-0.736-0.834-1.063-1.287-0.561-0.775-1.024-1.609-1.477-2.458-0.234-0.439-0.507-0.848-0.707-1.302-0.444-0.99-0.756-2.033-1.048-3.096-0.098-0.366-0.258-0.712-0.336-1.083-0.312-1.443-0.488-2.935-0.488-4.476s0.18-3.028 0.488-4.476c0.078-0.371 0.239-0.717 0.336-1.083 0.288-1.063 0.605-2.107 1.048-3.096 0.2-0.453 0.473-0.863 0.707-1.302 0.453-0.848 0.917-1.682 1.477-2.458 0.327-0.453 0.697-0.858 1.063-1.287 0.59-0.697 1.2-1.365 1.877-1.98 0.19-0.171 0.327-0.385 0.522-0.551l160.602-136.216zM896.883 304.83c0.361 0.429 0.736 0.834 1.063 1.287 0.561 0.775 1.024 1.609 1.477 2.458 0.234 0.439 0.507 0.848 0.707 1.302 0.444 0.99 0.761 2.033 1.048 3.096 0.102 0.366 0.254 0.712 0.336 1.083 0.312 1.443 0.488 2.935 0.488 4.476s-0.18 3.028-0.488 4.476c-0.078 0.371-0.234 0.717-0.336 1.083-0.288 1.063-0.605 2.107-1.048 3.096-0.205 0.453-0.473 0.863-0.707 1.302-0.453 0.848-0.917 1.682-1.477 2.458-0.327 0.453-0.697 0.858-1.063 1.287-0.59 0.697-1.2 1.365-1.877 1.98-0.19 0.171-0.327 0.385-0.522 0.551l-160.602 136.221c-8.958 7.607-22.391 6.5-29.998-2.462-7.607-8.967-6.5-22.396 2.462-29.998l116.365-98.704h-664.8c-11.756 0-21.285-9.533-21.285-21.285s9.533-21.285 21.285-21.285h664.805l-116.365-98.704c-8.967-7.602-10.069-21.031-2.462-29.998 4.208-4.964 10.206-7.519 16.243-7.519 4.866 0 9.757 1.658 13.756 5.057l160.602 136.221c0.195 0.166 0.336 0.38 0.522 0.551 0.673 0.61 1.282 1.273 1.872 1.97z" />
<glyph unicode="&#xe63a;" glyph-name="exchange" d="M662.796 335.735c0 30.179 0.41 60.777 0.41 90.96 21.090-4.964 42.174-19.017 44.656-20.261 9.923-6.612 17.369 9.094 24.81 19.846 3.721 6.198 0.824 11.991-2.482 14.058-3.721 2.482-30.598 20.675-66.984 23.567v13.648c0 4.549-3.721 7.851-7.856 7.851h-4.135c-4.135 0-7.856-3.306-7.856-7.851v-13.234c-52.926-5.378-76.902-39.283-79.799-68.632-0.41-4.964-0.824-9.923-0.41-14.887 2.892-45.895 38.863-66.155 80.213-82.281 0-31.422-0.414-62.020-0.414-93.442-28.116 5.378-52.926 26.049-54.989 28.116-4.549 3.725-9.509 1.658-12.815-2.896l-11.991-17.364c-4.549-7.027-1.239-9.923 2.068-13.234 6.203-5.788 33.904-28.945 77.731-32.246v-43.003c0-6.198 6.203-7.436 10.752-7.436s8.684 2.477 8.684 7.436v43.003c49.615 3.721 83.934 34.728 83.934 77.726-0.010 49.62-40.526 72.358-83.529 90.556zM642.95 344.001c-25.634 12.405-39.692 26.463-39.692 47.548 0 14.063 11.581 33.080 39.692 35.972v-83.519zM662.796 203.425v86.001c26.463-13.644 40.107-28.116 40.107-47.962 0-19.436-17.364-35.148-40.107-38.039zM658.632 594.627c-3.823 154.556-130.648 279.128-286.11 279.128-157.857 0-286.286-128.424-286.286-286.281 0-155.458 124.577-282.283 279.128-286.106 3.823-154.556 130.648-279.128 286.106-279.128 157.862 0 286.291 128.429 286.291 286.286 0 155.458-124.572 282.278-279.128 286.101zM128.809 587.479c0 134.383 109.329 243.707 243.712 243.707 132.686 0 240.869-106.598 243.59-238.636-51.356-6.359-98.538-26.322-137.791-56.232h-90.463v19.017l15.297 24.805h75.664c8.684 0 14.058 4.549 14.058 14.473 0 9.509-4.964 13.648-14.058 13.648h-57.885l70.29 109.568c2.068 3.311 2.896 6.203 2.896 9.094 0 6.203-4.135 11.581-10.338 15.301-3.721 2.482-7.856 3.721-11.576 3.721-5.378 0-10.752-2.482-14.473-9.094l-88.483-147.612-89.307 147.602c-3.721 6.203-8.684 8.684-14.058 8.684-3.721 0-7.441-1.243-11.162-3.311-6.203-3.311-10.752-9.094-10.752-15.711 0-2.896 0.824-5.793 2.892-8.684l70.705-109.568h-57.476c-9.094 0-14.058-4.549-14.058-14.058 0-9.513 4.964-14.063 14.058-14.063h74.84l15.711-24.391v-19.432h-90.96c-9.513 0-14.058-4.14-14.058-13.648s4.964-14.058 14.058-14.058h90.96v-73.182c0-11.166 7.027-16.955 18.603-16.955 11.166 0 18.608 5.788 18.608 16.955v73.192h59.124c-42.769-43.7-71.641-100.991-79.531-164.718-132.042 2.721-238.636 110.899-238.636 243.585zM651.474 64.814c-134.388 0-243.712 109.329-243.712 243.712s109.329 243.707 243.712 243.707c134.388 0 243.717-109.329 243.717-243.707 0-134.383-109.329-243.712-243.717-243.712z" />
<glyph unicode="&#xe63b;" glyph-name="exit" d="M785.681 822.691h-484.606c-11.756 0-21.285-9.528-21.285-21.285v-206.648c0-11.756 9.533-21.285 21.285-21.285s21.285 9.528 21.285 21.285v185.359h442.036v-664.235h-442.036v185.364c0 11.756-9.533 21.285-21.285 21.285s-21.285-9.528-21.285-21.285v-206.648c0-11.756 9.533-21.285 21.285-21.285h484.61c11.756 0 21.285 9.528 21.285 21.285v706.809c0 11.756-9.533 21.285-21.289 21.285zM161.563 431.855h301.675c11.756 0 21.285 9.528 21.285 21.285s-9.528 21.289-21.285 21.289h-301.675l68.189 57.832c8.967 7.607 10.069 21.036 2.467 29.998-7.612 8.977-21.041 10.060-29.998 2.467l-112.421-95.354c-0.2-0.166-0.336-0.385-0.527-0.561-0.673-0.614-1.282-1.282-1.872-1.98-0.361-0.424-0.731-0.829-1.058-1.278-0.566-0.78-1.034-1.619-1.487-2.477-0.229-0.434-0.497-0.839-0.697-1.282-0.444-0.995-0.761-2.043-1.053-3.111-0.098-0.361-0.254-0.702-0.332-1.068-0.312-1.443-0.488-2.935-0.488-4.476s0.18-3.028 0.488-4.476c0.078-0.366 0.234-0.707 0.332-1.068 0.288-1.068 0.61-2.116 1.053-3.111 0.2-0.449 0.468-0.853 0.697-1.282 0.458-0.858 0.926-1.697 1.487-2.477 0.322-0.449 0.697-0.853 1.058-1.278 0.59-0.697 1.2-1.365 1.872-1.98 0.19-0.176 0.332-0.39 0.527-0.561l112.421-95.354c3.998-3.389 8.889-5.052 13.756-5.052 6.037 0 12.030 2.55 16.243 7.519 7.602 8.962 6.5 22.396-2.467 29.998l-68.189 57.836z" />
<glyph unicode="&#xe63c;" glyph-name="eye" d="M942.436 459.386l-2.901 4.603c-17.496 27.853-58.466 93.082-127.429 150.548-86.44 72.031-187.412 108.559-300.105 108.559-112.981 0-214.060-36.528-300.446-108.573-68.925-57.485-109.734-122.709-127.161-150.567l-2.872-4.574c-4.379-6.949-4.369-15.794 0.020-22.738l2.906-4.608c17.496-27.853 58.461-93.082 127.429-150.557 86.45-72.041 187.426-108.573 300.13-108.573 112.694 0 213.665 36.523 300.105 108.559 68.964 57.466 109.934 122.695 127.429 150.548l2.901 4.603c4.398 6.953 4.398 15.818-0.005 22.772zM784.857 314.158c-78.58-65.482-170.379-98.684-272.852-98.684-102.478 0-194.287 33.207-272.876 98.699-59.153 49.293-95.32 103.634-114.464 133.871 19.071 30.237 55.096 84.524 114.156 133.783 78.526 65.492 170.433 98.694 273.179 98.694 102.473 0 194.272-33.207 272.852-98.684 59.134-49.274 95.3-103.595 114.449-133.837-19.149-30.242-55.316-84.563-114.444-133.842zM512.005 597.558c-82.466 0-149.558-67.092-149.558-149.558 0-82.461 67.092-149.553 149.558-149.553s149.558 67.092 149.558 149.553c0 82.466-67.092 149.558-149.558 149.558zM512.005 341.016c-58.992 0-106.984 47.991-106.984 106.979s47.996 106.984 106.984 106.984 106.984-47.996 106.984-106.984-47.991-106.979-106.984-106.979z" />
<glyph unicode="&#xe63d;" glyph-name="facebook" d="M573.152 53.092v360.268h120.934l18.105 140.4h-139.040v89.649c0 40.648 11.284 68.359 69.588 68.359l74.342 0.020v125.577c-12.873 1.716-56.998 5.544-108.334 5.544-107.213 0-180.599-65.429-180.599-185.593v-103.551h-121.232v-140.4h121.232v-360.268h145.003z" />
<glyph unicode="&#xe63e;" glyph-name="get-product-solid" d="M598.489 803.182c26.039 0 47.143 23.44 47.143 52.356v14.672c0 28.921-21.104 52.37-47.143 52.37-26.058 0-47.163-23.454-47.163-52.37v-14.672c0-28.921 21.104-52.356 47.163-52.356zM268.79 694.014c26.039 0 47.143 23.44 47.143 52.37v14.672c0 28.906-21.104 52.356-47.143 52.356-26.058 0-47.192-23.454-47.192-52.356v-14.672c0.005-28.93 21.138-52.37 47.192-52.37zM749.792 533.484c14.141 37.366 27.482 77.010 25.79 90.068-3.706 28.96-65.2 111.855-85.065 137.489l-0.39 0.176c-1.619 3.745-2.038 6.885-7.022 10.591-7.568 5.681-42.696 15.097-54.921 18.217-17.247-22.421-34.455-58.7-49.030-97.777 0.4 25.571 6.734 57.31 14.941 80.443l-10.006 0.268c-7.846-13.785-21.484-51.151-26.351-66.687 0.863 27.731 7.782 64.263 16.525 82.486-17.115-6.9-31.837-14.292-41.16-24.088-1.507-1.56-1.399-3.326-0.956-5.271-15.94-43.988-36.332-89.722-61.065-128.668-29.716-20.514-56.247-34.918-84.275-50.244-12.493 25.093-24.469 50.878-36.542 73.816-9.265 17.676-35.621 21.992-56.198 25.737-20.972-17.437-49.732-5.081-47.562-0.054-11.6-3.004-29.399-10.328-36.601-15.706-3.599-2.662-6.173-7.095-7.524-11.825-25.371-40.682-48.304-84.27-66.209-128.327-8.372-20.553 6.836-132.735 10.484-160.446 4.905-37.171 53.609-30.642 48.733 6.446-6.724 51.034-5.354 84.353-4.549 137.211 6.354 15.228 13.502 28.643 21.236 41.316 2.068-22.523 3.677-44.983 4.554-66.526 1.829-47.411-0.79-88.932-3.496-136.27l14.458-0.414c2.287-122.007-0.897-242.6-6.802-361.487-0.293-6.237 3.574-10.542 9.265-10.542l37.688 0.015c4.686 0 8.894 3.257 9.489 7.904 11.332 89.068 11.093 213.445 18.086 304.63 0.029 0.863 3.525 0.478 3.525 0.107 6.617-95.252 5.715-204.883 3.569-304.738-0.078-4.647 3.36-7.904 8.026-7.904l37.712-0.015c5.666 0 10.64 4.32 11.23 10.542 7.704 120.964 8.763 227.586 5.773 361.487-0.8 35.44-1.858 69.096-3.179 99.484-1.531 36.050-17.579 74.064-17.983 88.83-0.078 2.107 8.982-12.434 16.126-25.454 5.276-9.362 11.449-17.715 22.884-25.156 33.636-23.255 81.618-45.368 103.551-52.253 19.276-6.066 19.495-6.632 32.675-10.435l11.152 5.31c-10.806-13.336-18.505-35.113-22.952-64.941h-52.843c-4.71 0-8.655-3.564-9.138-8.251l-18.681-182.111h268.581l-18.681 182.111c-0.483 4.686-4.428 8.251-9.138 8.251h-52.834c-7.899 52.97-26.049 80.555-53.638 80.555-1.624 0-3.209-0.112-4.764-0.302-0.902 3.36-2.896 6.871-6.554 10.401-12.551 12.21-58.266 35.967-94.125 54.872h434.708v27.121h-140.527zM512.083 268.595c-8.909 0-16.13 7.222-16.13 16.13 0 5.915 3.194 11.069 7.938 13.878 0.39 0.229 0.809 0.419 1.219 0.619 0.375 22.455 1.853 42.325 4.418 59.509h14.341c-2.638-16.862-4.198-36.864-4.588-59.626 0.385-0.195 0.78-0.375 1.151-0.6 4.662-2.828 7.782-7.934 7.782-13.785-0.005-8.904-7.222-16.126-16.13-16.126zM612.591 358.732c2.565-17.184 4.042-37.054 4.418-59.509 0.41-0.2 0.829-0.39 1.219-0.619 4.745-2.809 7.938-7.963 7.938-13.878 0-8.909-7.222-16.13-16.13-16.13s-16.13 7.222-16.13 16.13c0 5.851 3.126 10.957 7.782 13.785 0.366 0.224 0.761 0.405 1.151 0.6-0.39 22.757-1.955 42.764-4.588 59.626h14.341zM596.144 360.838h-70.173c6.227 39.819 18.398 62.186 35.084 62.186s28.862-22.372 35.089-62.186zM511.356 533.484l-99.123 0.010c39.351 16.33 57.466 23.415 94.125 50.23 3.179 2.341 5.608 4.53 7.626 6.715-1.117-19.636-1.936-38.732-2.628-56.954zM691.975 533.484h-12.922c1.039 38.083 2.677 75.883 1.751 116.302l1.19 11.888 8.894-9.772c8.163-10.752 15.999-22.167 23.284-34.918-7.895-32.041-14.009-57.339-22.196-83.5zM696.642 157.852h-271.17l-5.081-49.557c-0.263-2.584 0.575-5.164 2.321-7.095 1.741-1.931 4.218-3.033 6.817-3.033h263.061c0.015 0 0.029 0 0.044 0 5.071 0 9.187 4.116 9.187 9.187 0 0.624-0.059 1.234-0.18 1.824l-4.998 48.674z" />
<glyph unicode="&#xe63f;" glyph-name="hamburger" d="M153.029 564.653h717.936c22.889 0 41.448 18.559 41.448 41.448s-18.559 41.448-41.448 41.448h-717.936c-22.889 0-41.448-18.559-41.448-41.448s18.559-41.448 41.448-41.448zM870.971 466.671h-717.941c-22.889 0-41.448-18.559-41.448-41.448s18.559-41.448 41.448-41.448h717.936c22.889 0 41.448 18.559 41.448 41.448s-18.554 41.448-41.443 41.448zM870.971 285.794h-717.941c-22.889 0-41.448-18.559-41.448-41.448s18.559-41.448 41.448-41.448h717.936c22.889 0 41.448 18.559 41.448 41.448s-18.554 41.448-41.443 41.448z" />
<glyph unicode="&#xe640;" glyph-name="hanger" d="M510.679 607.612c-17.159 0-31.627-14.804-31.627-32.3 0-17.159 14.468-31.627 31.627-31.627 17.496 0 32.3 14.473 32.3 31.627 0 17.496-14.804 32.3-32.3 32.3zM469.294 727.396c8.411-7.407 14.804 13.795 38.356 13.795 14.468 0 25.234-9.426 25.234-19.851 0-21.533-46.431-33.982-46.431-62.245v-14.131c0-3.701 3.028-6.398 6.393-6.398h36.001c3.365 0 6.393 2.697 6.393 6.398 0 36.337 50.469 37.683 50.469 82.096 0 33.982-32.973 58.88-68.637 58.88-43.403 0-68.301-29.608-68.301-29.608-2.355-2.35-2.692-6.393 0-8.748l20.524-20.187zM928.685 247.301l-404.953 267.371c-7.114 4.696-16.345 4.696-23.459 0l-406.192-268.19c-7.841-5.179-11.362-14.887-8.655-23.884 2.706-9.001 10.986-15.16 20.387-15.16h812.388c0.034 0 0.063 0 0.098 0 11.756 0 21.285 9.528 21.285 21.285-0.005 7.977-4.398 14.931-10.898 18.578zM176.674 250.002l335.326 221.403 335.326-221.399h-670.652z" />
<glyph unicode="&#xe641;" glyph-name="like-heart" d="M816.655 769.916c-41.418 29.579-83.003 35.533-90.692 36.411-3.433 0.61-13.609 2.146-28.609 2.146-38.81 0-114.147-10.498-185.354-80.311-71.192 69.808-146.534 80.311-185.354 80.311-15.004 0-25.181-1.536-28.609-2.146-7.695-0.878-49.279-6.832-90.692-36.411-41.199-29.423-90.312-88.493-90.312-202.825 0-212.617 367.353-465.218 382.991-475.867 3.613-2.462 7.797-3.696 11.981-3.696s8.368 1.234 11.981 3.696c15.638 10.65 382.981 263.251 382.981 475.867 0 114.327-49.113 173.397-90.312 202.825zM512.005 665.585c33.017-38.858 74.464-99.684 74.464-160.144 0-94.325-71.426-95.408-74.464-95.408s-74.474 1.087-74.474 95.408c0 60.46 41.452 121.285 74.474 160.144zM684.559 277.314c-71.841-68.569-144.564-122.451-172.554-142.477-27.984 20.022-100.713 73.904-172.559 142.477-117.653 112.299-179.844 212.504-179.844 289.777 0 180.951 137.611 196.393 143.375 196.959 0.722 0.063 1.551 0.185 2.267 0.317 0.078 0.020 8.124 1.536 21.402 1.536 32.422 0 95.637-9.006 156.248-68.852-72.231-82.944-87.937-149.499-87.937-191.61 0-101.235 69.998-137.982 117.048-137.982 47.045 0 117.038 36.747 117.038 137.982 0 42.111-15.701 108.671-87.932 191.615 60.616 59.841 123.821 68.847 156.243 68.847 13.253 0 21.294-1.516 21.299-1.516 0.785-0.161 1.575-0.278 2.37-0.341 0.346-0.034 35.899-3.779 70.895-28.774 48.094-34.348 72.48-90.926 72.48-168.18 0-77.273-62.186-177.479-179.839-289.777z" />
<glyph unicode="&#xe642;" glyph-name="high-heel-solid" d="M744.867 248.33c-103.185 34.821-128.044 0.746-172.49 28.111-44.437 27.365-90.556 116.834-156.877 218.483s-139.488 271.414-157.584 274.72c-18.096 3.306-42.125-34.787-59.719-56.695-78.029-97.426-67.472-132.34-50.225-197.237 14.039-98.567 11.542-357.561 11.327-377.427h-0.015v-2.258h0.049c0.532-11.908 10.845-9.713 23.523-9.713s22.991-2.194 23.523 9.713h0.024l-0.020 0.083c0.010 0.293 0.044 0.556 0.044 0.868v0c-4.062 21.099-0.951 202.196 2.048 260.598 2.95 58.427 74.099 35.055 74.099 35.055 92.145-68.793 129.136-306.313 184.847-306.313 55.701 0 376.037 0.731 407.372 0.731 31.339-0.005-26.746 86.469-129.926 121.281z" />
<glyph unicode="&#xe643;" glyph-name="house-solid" d="M752.138 118.75h-165.576c-11.269 0-20.421 9.153-20.421 20.421v151.020h-103.697v-151.020c0-11.269-9.153-20.421-20.421-20.421h-170.242c-11.269 0-20.421 9.153-20.421 20.421v340.548h-91.848c-8.29 0-15.784 5.003-18.915 12.712s-1.321 16.491 4.608 22.323l354.796 333.975c7.953 7.802 20.665 7.802 28.589 0l348.994-332.873c4.481-3.745 7.339-9.396 7.339-15.692 0-11.269-9.153-20.421-20.421-20.421-0.029 0-0.063 0-0.093 0h-91.848v-340.548c0-11.269-9.153-20.421-20.421-20.421v-0.024z" />
<glyph unicode="&#xe644;" glyph-name="house" d="M757.038 111.241h-168.955c-11.498 0-20.836 9.338-20.836 20.836v154.102h-105.813v-154.102c0-11.498-9.338-20.836-20.836-20.836h-173.719c-11.498 0-20.836 9.338-20.836 20.836v347.502h-93.72c-8.46 0-16.106 5.105-19.3 12.971s-1.346 16.828 4.701 22.782l362.038 340.792c8.114 7.958 21.090 7.958 29.174 0l356.113-339.666c4.574-3.823 7.49-9.587 7.49-16.013 0-11.498-9.338-20.836-20.836-20.836-0.029 0-0.063 0-0.093 0h-93.72v-347.497c0-11.498-9.338-20.836-20.836-20.836l-0.015-0.034zM608.953 152.917h127.249v347.497c0 11.498 9.338 20.836 20.836 20.836h63.512l-306.23 290.782-310.989-290.777h63.547c11.498 0 20.836-9.338 20.836-20.836v-347.497h132.042v154.102c0 11.498 9.338 20.836 20.836 20.836h147.49c11.498 0 20.836-9.338 20.836-20.836v-154.102l0.034-0.005z" />
<glyph unicode="&#xe645;" glyph-name="important-solid" d="M511.995 867.781c-231.468 0-419.781-188.314-419.781-419.777 0-231.468 188.314-419.786 419.781-419.786 231.473 0 419.791 188.318 419.791 419.786 0 231.463-188.318 419.777-419.791 419.777zM487.561 655.672c0 5.905 5.315 11.22 11.225 11.22h47.245c5.91 0 11.225-5.315 11.225-11.22v-66.15l-17.13-165.966c-0.59-4.725-5.905-9.45-11.22-9.45h-12.995c-5.315 0-10.635 4.725-11.225 9.45l-17.125 164.781v67.335zM521.821 247.55c-21.85 0-40.75 18.31-40.75 40.755 0 23.035 18.9 41.345 40.75 41.345 23.035 0 41.345-18.31 41.345-41.345-0.005-22.45-18.315-40.755-41.345-40.755z" />
<glyph unicode="&#xe646;" glyph-name="important" d="M511.995 867.781c-231.468 0-419.781-188.314-419.781-419.777 0-231.468 188.314-419.786 419.781-419.786 231.473 0 419.791 188.318 419.791 419.786 0 231.463-188.318 419.777-419.791 419.777zM511.995 70.793c-207.994 0-377.207 169.218-377.207 377.212s169.214 377.203 377.207 377.203c207.999 0 377.217-169.214 377.217-377.203 0-207.999-169.218-377.212-377.217-377.212zM515.916 414.106h12.99c5.32 0 10.635 4.725 11.225 9.45l17.13 165.966v66.15c0 5.905-5.315 11.22-11.225 11.22h-47.245c-5.91 0-11.225-5.315-11.225-11.22v-67.335l17.13-164.781c0.585-4.725 5.905-9.45 11.22-9.45zM521.821 329.645c-21.85 0-40.75-18.31-40.75-41.345 0-22.445 18.9-40.755 40.75-40.755 23.035 0 41.345 18.31 41.345 40.755-0.005 23.035-18.315 41.345-41.345 41.345z" />
<glyph unicode="&#xe647;" glyph-name="information-solid" d="M511.995 867.781c-231.468 0-419.781-188.314-419.781-419.777 0-231.468 188.314-419.786 419.781-419.786 231.473 0 419.791 188.318 419.791 419.786 0 231.463-188.318 419.777-419.791 419.777zM537.2 269.765c0-6.046-5.442-11.488-11.488-11.488h-34.46c-6.046 0-11.488 5.442-11.488 11.488v243.249c0 6.046 5.442 11.488 11.488 11.488h34.46c6.046 0 11.488-5.442 11.488-11.488v-243.249zM507.577 598.674c-19.349 0-34.46 15.721-34.46 35.065 0 19.953 15.116 35.674 34.46 35.674 19.953 0 35.669-15.721 35.669-35.674 0-19.344-15.716-35.065-35.669-35.065z" />
<glyph unicode="&#xe648;" glyph-name="information" d="M511.995 867.781c-231.468 0-419.781-188.314-419.781-419.777 0-231.468 188.314-419.786 419.781-419.786 231.473 0 419.791 188.318 419.791 419.786 0 231.463-188.318 419.777-419.791 419.777zM511.995 70.793c-207.994 0-377.207 169.218-377.207 377.212s169.214 377.203 377.207 377.203c207.999 0 377.217-169.214 377.217-377.203 0-207.999-169.218-377.212-377.217-377.212zM529.535 518.407h-34.46c-6.046 0-11.488-5.442-11.488-11.488v-253.001c0-6.046 5.442-11.488 11.488-11.488h34.46c6.046 0 11.488 5.442 11.488 11.488v253.001c0 6.051-5.442 11.488-11.488 11.488zM511.395 653.57c-19.349 0-34.46-15.721-34.46-35.674 0-19.349 15.116-35.065 34.46-35.065 19.953 0 35.669 15.721 35.669 35.065 0 19.953-15.716 35.674-35.669 35.674z" />
</font>
</defs>
</svg>
